<?xml version="1.0" standalone="no"?>
<!DOCTYPE svg PUBLIC "-//W3C//DTD SVG 1.1//EN" "http://www.w3.org/Graphics/SVG/1.1/DTD/svg11.dtd" >
<svg xmlns="http://www.w3.org/2000/svg">
<metadata>Generated by IcoMoon</metadata>
<defs>
<font id="ita" horiz-adv-x="1024">
<font-face units-per-em="1024" ascent="960" descent="-64" />
<missing-glyph horiz-adv-x="1024" />
<glyph unicode="&#x20;" horiz-adv-x="512" d="" />
<glyph unicode="&#x46;" glyph-name="flickr" d="M832 960c51.199 0 96-19.2 134.4-57.6s57.6-83.2 57.6-134.4v-640c0-51.199-19.2-96-57.6-134.4s-83.2-57.6-134.4-57.6h-640c-51.199 0-96 19.2-134.4 57.6s-57.6 83.2-57.6 134.4v640c0 51.199 19.2 96 57.6 134.4s83.2 57.6 134.4 57.6h640zM467.201 448.001c0 38.4-12.799 70.399-44.8 102.4s-57.6 38.4-102.4 38.4c-38.4 0-70.399-12.799-96-44.8-25.6-25.6-44.8-57.6-44.8-102.4 0-38.4 12.799-70.399 44.8-102.4 25.6-19.2 64-31.999 96-31.999 38.4 0 70.399 12.799 102.4 44.8 25.6 25.6 44.8 57.6 44.8 96zM844.801 448.001c0 38.4-12.799 70.399-44.8 102.4-25.6 25.6-64 38.4-96 38.4-38.4 0-70.399-12.799-102.4-44.8-25.6-25.6-44.8-57.6-44.8-102.4 0-38.4 12.799-70.399 44.8-102.4 25.6-25.6 57.6-44.8 102.4-44.8 38.4 0 70.399 12.799 96 44.8 25.6 38.4 44.8 70.399 44.8 108.799z" />
<glyph unicode="&#x47;" glyph-name="googleplus" d="M537.599 134.397c0 6.4 0 19.2-6.4 25.6 0 6.4 0 12.799-6.4 19.2 0 6.4-6.4 12.799-12.799 19.2s-12.799 12.799-12.799 19.2c-6.4 6.4-12.799 12.799-19.2 19.2s-12.799 12.799-19.2 19.2c-6.4 0-12.799 6.4-19.2 12.799s-12.799 12.799-19.2 12.799c0 6.4-12.799 6.4-19.2 12.799-12.799 6.4-19.2 12.799-19.2 12.799-6.4 0-19.2 0-31.999 0-25.6 0-44.8 0-64-6.4s-44.8-6.4-64-19.2c-25.6-6.4-44.8-12.799-57.6-25.6-6.4 0-25.6-12.799-38.4-31.999s-19.2-38.4-19.2-64c0-25.6 6.4-51.199 19.2-70.399 12.799-25.6 31.999-38.4 57.6-51.199s44.8-25.6 70.399-25.6c25.6-6.4 51.199-12.799 76.8-12.799s44.8 0 70.399 6.4c19.2 6.4 38.4 12.799 57.6 25.6s31.999 25.6 44.8 44.8c25.6 12.799 31.999 31.999 31.999 57.6v0zM467.199 671.996c0 25.6 0 51.199-6.4 76.8s-19.2 51.199-31.999 76.8c-12.799 25.6-31.999 44.8-51.199 64-25.6 19.2-51.199 25.6-76.8 25.6-38.4 0-64-12.799-89.599-44.8s-31.999-64-31.999-102.4c0-19.2 0-38.4 6.4-57.6s12.799-44.8 19.2-64c6.4-19.2 19.2-38.4 31.999-57.6s25.6-31.999 44.8-38.4c19.2-12.799 38.4-12.799 57.6-12.799 38.4 0 70.399 12.799 83.2 38.4 31.999 19.2 44.8 51.199 44.8 96v0zM384 959.996h268.8l-83.2-44.8h-83.2c25.6-19.2 51.199-44.8 64-76.8 19.2-38.4 25.6-70.399 25.6-108.799 0-31.999-6.4-57.6-12.799-83.2-12.799-25.6-19.2-44.8-31.999-57.6s-25.6-25.6-38.4-38.4c-12.799-12.799-25.6-25.6-31.999-38.4-12.799-12.799-12.799-25.6-12.799-44.8 0-12.799 6.4-19.2 12.799-31.999s12.799-19.2 25.6-31.999c12.799-6.4 25.6-19.2 38.4-31.999 12.799-6.4 25.6-19.2 38.4-31.999s25.6-25.6 38.4-38.4c12.799-12.799 19.2-31.999 25.6-51.199s12.799-38.4 12.799-64c0-64-25.6-121.6-83.2-172.8-64-51.199-147.199-76.8-256-76.8-25.6 0-51.199 0-70.399 6.4-25.6 6.4-51.199 12.799-76.8 19.2-25.6 12.799-44.8 19.2-64 38.4s-31.999 31.999-44.8 51.199c-38.4 25.6-44.8 51.199-44.8 76.8s6.4 51.199 25.6 83.2c12.799 25.6 31.999 44.8 57.6 64s57.6 31.999 89.599 44.8c31.999 6.4 64 19.2 96 19.2 31.999 6.4 57.6 6.4 89.599 6.4-25.6 31.999-38.4 64-38.4 89.599 0 6.4 0 12.799 0 12.799 0 6.4 0 6.4 6.4 12.799 0 0 0 6.4 6.4 12.799 0 6.4 0 6.4 6.4 12.799-19.2 0-31.999-6.4-44.8-6.4-64 0-115.2 19.2-160 57.6-44.8 57.6-70.399 108.799-70.399 172.8 0 51.199 19.2 102.4 64 153.6 38.4 44.8 83.2 76.8 140.8 89.599 38.4 6.4 76.8 6.4 115.2 6.4v0zM1023.998 799.997v-76.8h-160v-160h-76.8v160h-160v76.8h160v160h76.8v-160h160z" />
<glyph unicode="&#x49;" glyph-name="instagram" d="M796.445 960h-568.889c-125.156 0-227.556-102.4-227.556-227.556v-568.889c0-125.156 102.4-227.556 227.556-227.556h568.889c125.156 0 227.556 102.4 227.556 227.556v568.889c0 125.156-102.4 227.556-227.556 227.556zM227.557 903.111h568.889c96.711 0 170.667-73.956 170.667-170.667v-147.911h-318.578c-39.822 17.067-91.022 34.133-136.533 34.133s-96.711-17.067-136.533-34.133h-318.578v147.911c0 96.711 73.956 170.667 170.667 170.667zM750.934 334.222c0-130.844-108.089-238.933-238.933-238.933s-238.933 102.4-238.933 238.933c0 85.333 45.511 164.978 119.467 204.8 34.133 17.067 73.956 34.133 119.467 34.133s85.333-11.378 119.467-34.133c73.956-45.511 119.467-119.467 119.467-204.8zM796.445-7.111h-568.889c-96.711 0-170.667 73.956-170.667 170.667v375.467h256c-51.2-51.2-85.333-125.156-85.333-204.8 0-159.289 125.156-284.444 284.444-284.444s284.444 125.156 284.444 284.444c0 79.644-34.133 153.6-85.333 204.8h256v-375.467c0-96.711-73.956-170.667-170.667-170.667zM512.001 453.689c68.267 0 125.156-56.889 125.156-125.156s-56.889-125.156-125.156-125.156-125.156 56.889-125.156 125.156 56.889 125.156 125.156 125.156zM512.001 499.2c-96.711 0-170.667-73.956-170.667-170.667s73.956-170.667 170.667-170.667 170.667 73.956 170.667 170.667-73.956 170.667-170.667 170.667v0zM807.823 800.711v-119.467h-119.467v119.467h119.467zM813.512 846.222h-130.844c-22.756 0-39.822-17.067-39.822-39.822v-130.844c0-22.756 17.067-39.822 39.822-39.822h130.844c22.756 0 39.822 17.067 39.822 39.822v130.844c0 22.756-17.067 39.822-39.822 39.822v0z" />
<glyph unicode="&#x4c;" glyph-name="linkedin" d="M1024 335.36v-378.88h-220.16v353.28c0 87.040-30.72 148.48-112.64 148.48-61.44 0-97.28-40.96-112.64-81.92-5.12-15.36-5.12-35.84-5.12-51.2v-368.64h-220.16c0 0 5.12 599.040 0 660.48h220.16v-92.16c0 0 0 0 0 0v0 0c30.72 46.080 81.92 107.52 199.68 107.52 143.36 0 250.88-92.16 250.88-296.96zM122.88 939.52c-71.68 0-122.88-51.2-122.88-117.76 0-61.44 46.080-112.64 122.88-112.64v0c76.8 0 122.88 51.2 122.88 112.64 0 66.56-46.080 117.76-122.88 117.76zM15.36-43.52h220.16v660.48h-220.16v-660.48z" />
<glyph unicode="&#x4d;" glyph-name="medium" d="M716.8 166.4l307.2-153.6c0 0 0 0 0 0s0 0 0 0v650.24l-307.2-496.64zM696.32 883.2l-215.040-348.16 209.92-343.040 322.56 532.48zM353.28 345.6l281.6-138.24-281.6 455.68zM0 181.76c0-5.12 5.12-10.24 10.24-15.36l307.2-153.6c0 0 0 0 0 0s0 0 0 0v706.56l-317.44 158.72v-696.32z" />
<glyph unicode="&#x53;" glyph-name="slideshare" d="M60.801 959.998v-492.799c-12.799 6.4-31.999 19.2-44.8 6.4s6.4-25.6 6.4-38.4c64-64 134.4-108.799 211.2-140.8-19.2-51.199-25.6-108.799-19.2-166.399 12.799-96 76.8-192 179.2-192 51.199 0 102.4 31.999 102.4 89.599v217.6c12.799 0 25.6-6.4 38.4-12.799v-198.4c0-12.799 0-25.6 6.4-38.4 19.2-31.999 57.6-51.199 96-51.199 108.799 6.4 166.399 96 179.2 192 6.4 57.6 0 115.2-19.2 166.399 70.399 31.999 204.799 89.599 223.999 172.8 0 12.799-6.4 12.799-19.2 12.799s-25.6-6.4-31.999-12.799v486.4h-908.8zM118.401 908.799h819.199v-473.599c-12.799-6.4-25.6-12.799-38.4-19.2l-729.6-12.799c-19.2 6.4-38.4 19.2-51.199 25.6v480zM387.201 659.199c-70.399 0-121.6-51.199-121.6-121.6 0-64 51.199-121.6 121.6-121.6 64 0 121.6 57.6 121.6 121.6s-51.199 121.6-121.6 121.6zM675.2 659.199c-64 0-121.6-51.199-121.6-121.6 0-64 57.6-121.6 121.6-121.6 70.399 0 121.6 57.6 121.6 121.6s-51.199 121.6-121.6 121.6z" />
<glyph unicode="&#x54;" glyph-name="twitter" d="M1024 763.734c-28.444-39.823-62.577-73.956-108.089-108.089v-28.444c0-96.711-22.756-187.733-62.577-278.756-45.511-91.023-113.777-164.977-210.489-227.556-91.023-62.577-199.111-91.023-318.577-91.023s-227.556 28.444-324.267 91.023c11.377 0 28.444 0 51.2 0 96.711 0 182.044 28.444 261.689 85.333-45.511 0-85.333 17.067-119.467 45.511s-62.577 62.577-73.956 102.4c5.689 0 17.067-5.689 34.133-5.689s39.823 0 56.889 5.689c-51.2 11.377-91.023 34.133-119.467 73.956-34.133 51.2-45.511 91.023-45.511 142.223v0c28.444-11.377 56.889-22.756 91.023-28.444-62.577 51.2-91.023 108.089-91.023 182.044 0 34.133 11.377 68.267 28.444 102.4 113.777-136.533 256-210.489 432.356-216.177-5.689 11.377-5.689 28.444-5.689 45.511 0 56.889 17.067 108.089 62.577 147.911 39.823 39.823 91.023 62.577 147.911 62.577 62.577 0 108.089-17.067 153.6-62.577 45.511 11.377 91.023 22.756 130.844 45.511-17.067-45.511-45.511-85.333-91.023-113.777 39.823 5.689 79.644 17.067 119.467 28.444z" />
<glyph unicode="&#x57;" glyph-name="whatsapp" d="M651.377 396.803c5.689 0 28.444-11.377 62.577-28.444 39.823-17.067 56.889-28.444 56.889-34.133 0 0 0-5.689 0-11.377 0-17.067-5.689-34.133-11.377-51.2s-22.756-34.133-45.51-45.51c-22.756-11.377-45.51-17.067-68.266-17.067s-68.266 11.377-125.156 39.823c-39.823 22.756-79.644 45.51-113.777 79.644s-62.577 73.956-96.71 125.156c-28.444 45.51-39.823 91.022-39.823 125.156v5.689c0 39.823 17.067 73.956 51.2 102.4 5.689 11.377 17.067 17.067 28.444 17.067 0 0 5.689 0 11.377 0s11.377 0 11.377 0 11.377 0 17.067-5.689c5.689 0 5.689-5.689 11.377-17.067 0-11.377 11.377-28.444 22.756-62.577 11.377-28.444 17.067-45.51 17.067-51.2 0-11.377-5.689-22.756-22.756-39.823-11.377-5.689-22.756-17.067-22.756-22.756 0 0 0-5.689 0-11.377 17.067-34.133 39.823-62.577 68.266-91.022 22.756-22.756 56.889-45.51 102.4-68.266 5.689 0 11.377-5.689 17.067-5.689s17.067 11.377 34.133 34.133c17.067 22.756 28.444 34.133 34.133 34.133v0zM520.532 44.094c56.889 0 108.089 11.377 164.977 34.133 51.2 22.756 96.71 51.2 130.843 85.333s68.266 79.644 85.333 130.843c22.756 51.2 34.133 108.089 34.133 164.977s-11.377 108.089-34.133 159.289c-22.756 56.889-51.2 102.4-91.022 136.533s-79.644 68.266-130.843 91.022c-51.2 22.756-108.089 34.133-164.977 34.133s-108.089-17.067-159.289-34.133c-51.2-22.756-96.71-51.2-130.843-91.022s-68.266-79.644-91.022-130.843c-22.756-51.2-28.444-108.089-28.444-164.977 0-91.022 22.756-170.666 79.644-244.622l-51.2-153.599 159.289 51.2c68.266-45.51 142.222-68.266 227.555-68.266zM520.532 960.001c68.266 0 130.843-11.377 193.422-39.823 62.577-22.756 113.777-62.577 159.289-108.089s79.644-96.71 108.089-159.289c28.444-62.577 39.823-125.156 39.823-193.422s-11.377-130.843-39.823-193.422c-22.756-62.577-62.577-113.777-108.089-159.289s-96.71-79.644-159.289-108.089c-62.577-22.756-125.156-39.823-193.422-39.823-85.333 0-164.977 22.756-238.932 62.577l-278.755-85.333 85.333 267.376c-45.51 73.956-68.266 164.977-68.266 255.999 0 68.266 11.377 130.843 39.823 193.422 22.756 62.577 62.577 113.777 108.089 159.289s96.71 79.644 159.289 108.089c56.889 28.444 125.156 39.823 193.422 39.823z" />
<glyph unicode="&#x59;" glyph-name="youtube" d="M1008.64 688.64c-10.24 56.32-56.32 92.16-112.64 102.4-128 15.36-256 15.36-384 15.36s-256 0-384-15.36c-51.2-5.12-97.28-46.080-112.64-102.4-15.36-76.8-15.36-158.72-15.36-240.64s0-163.84 15.36-240.64c10.24-56.32 56.32-92.16 112.64-102.4 128-15.36 256-15.36 384-15.36s256 0 384 15.36c51.2 5.12 97.28 46.080 112.64 102.4 15.36 76.8 15.36 158.72 15.36 240.64s0 163.84-15.36 240.64zM378.88 289.28c0 112.64 0 225.28 0 337.92 107.52-56.32 215.040-112.64 327.68-168.96-107.52-56.32-220.16-112.64-327.68-168.96z" />
<glyph unicode="&#x62;" glyph-name="behance" d="M885.029 652.8c10.971 0 18.286 7.314 18.286 18.286v51.2c0 10.971-7.314 18.286-18.286 18.286h-212.114c-10.971 0-18.286-7.314-18.286-18.286v-51.2c0-10.971 7.314-18.286 18.286-18.286h212.114zM786.286 506.514c43.886 0 80.457-21.943 102.4-58.514h-204.8c21.943 36.571 58.514 58.514 102.4 58.514zM1024 378.514c0 135.314-106.057 245.029-237.714 245.029s-237.714-109.714-237.714-245.029c0-135.314 106.057-245.029 237.714-245.029 80.457 0 153.6 40.229 197.486 109.714 7.314 7.314 10.971 18.286 14.629 25.6s0 14.629-7.314 14.629h-117.029c-3.657 0-3.657 0-7.314-3.657-21.943-21.943-47.543-32.914-80.457-32.914-58.514 0-106.057 43.886-117.029 102.4h332.8c14.629 0 21.943 10.971 21.943 21.943v7.314zM318.171 257.828h-204.8v164.571h204.8c43.886 0 80.457-36.571 80.457-80.457 3.657-47.543-32.914-84.114-80.457-84.114zM113.371 649.142h171.886c32.914 0 58.514-25.6 58.514-58.514s-25.6-58.514-58.514-58.514h-171.886v117.029zM431.543 499.2c18.286 29.257 29.257 62.171 25.6 95.086 0 95.086-80.457 168.229-175.543 168.229h-259.657c-10.971 0-21.943-10.971-21.943-21.943v-581.486c0-10.971 10.971-21.943 21.943-21.943h296.229c109.714 0 201.143 87.771 201.143 197.486-3.657 69.486-36.571 128-87.771 164.571z" />
<glyph unicode="&#x66;" glyph-name="facebook" d="M591.645 624.356h159.289l-17.067-176.356h-142.222v-511.999h-210.489v511.999h-108.089v176.356h108.089v108.089c0 73.956 17.067 130.844 51.2 170.666 39.823 39.823 96.711 56.889 176.356 56.889h142.222v-176.356h-85.333c-17.067 0-28.444 0-39.823-5.689-11.377 0-17.067-5.689-22.756-11.377-5.689-11.377-5.689-17.067-11.377-22.756 0-5.689 0-17.067 0-28.444v-91.023z" />
<glyph unicode="&#x67;" glyph-name="github" d="M714.24-64h-271.36c0 0 0 81.92 0 138.24-184.32-40.96-240.64 102.4-240.64 102.4-35.84 66.56-66.56 102.4-66.56 102.4-66.56 40.96 0 35.84 0 35.84 66.56 0 102.4-66.56 102.4-66.56 61.44-102.4 168.96-87.040 204.8-66.56 0 35.84 15.36 87.040 35.84 102.4-148.48 10.24-276.48 97.28-276.48 266.24s35.84 204.8 71.68 240.64c-10.24 15.36-35.84 76.8 0 168.96 0 0 66.56 0 133.12-102.4 35.84 35.84 138.24 35.84 168.96 35.84 35.84 0 138.24 0 168.96-35.84 66.56 102.4 133.12 102.4 133.12 102.4 35.84-92.16 10.24-153.6 0-168.96 40.96-35.84 76.8-71.68 76.8-240.64s-122.88-256-271.36-271.36c20.48-15.36 35.84-76.8 35.84-102.4l-5.12-240.64z" />
<glyph unicode="&#x79;" glyph-name="youtube-text" d="M628.019 248.749v-121.064c0-25.221-10.088-40.354-20.178-40.354s-20.178 5.045-25.221 10.088v171.508c10.088 10.088 15.133 15.133 25.221 15.133 15.133 0 20.178-15.133 20.178-35.311v0zM824.749 243.704v-25.221h-50.444v25.221c0 25.221 10.088 40.354 25.221 40.354s25.221-15.133 25.221-40.354v0zM264.827 369.813h60.532v50.444h-176.551v-50.444h60.532v-327.882h60.532v327.882zM431.29 41.931h50.444v282.482h-50.444v-216.907c-10.088-15.133-20.178-25.221-30.266-25.221s-10.088 5.045-10.088 10.088c0 0 0 10.088 0 20.178v206.817h-50.444v-226.995c0-20.178 0-30.266 5.045-40.354 5.045-15.133 15.133-20.178 35.311-20.178s40.354 10.088 60.532 35.311v-25.221zM678.463 127.685v116.019c0 25.221 0 45.399-5.045 55.487-5.045 20.178-20.178 30.266-40.354 30.266s-40.354-10.088-55.487-30.266v126.109h-50.444v-383.37h50.444v30.266c20.178-20.178 35.311-30.266 55.487-30.266s35.311 10.088 40.354 30.266c5.045 10.088 5.045 25.221 5.045 55.487zM875.192 132.729v10.088h-50.444c0-20.178 0-30.266 0-35.311 0-10.088-10.088-20.178-20.178-20.178-20.178 0-25.221 15.133-25.221 40.354v50.444h100.886v60.532c0 30.266-5.045 50.444-15.133 65.577-15.133 20.178-35.311 30.266-60.532 30.266s-45.399-10.088-60.532-30.266c-10.088-15.133-15.133-35.311-15.133-65.577v-100.886c0-30.266 5.045-50.444 20.178-65.577 15.133-20.178 35.311-30.266 60.532-30.266s50.444 10.088 60.532 30.266c10.088 10.088 10.088 20.178 10.088 30.266-5.045 0-5.045 15.133-5.045 30.266zM522.088 657.34v121.064c0 25.221-10.088 40.354-25.221 40.354s-25.221-15.133-25.221-40.354v-121.064c0-25.221 10.088-40.354 25.221-40.354 20.178 0 25.221 15.133 25.221 40.354zM940.769 228.571c0-90.798-5.045-156.375-15.133-201.774-5.045-20.178-15.133-40.354-30.266-55.487-20.178-15.133-35.311-25.221-60.532-25.221-70.62-10.088-176.551-10.088-322.838-10.088s-252.216 0-322.838 5.045c-20.178 0-40.354 10.088-60.532 25.221-15.133 15.133-30.266 35.311-30.266 55.487-10.088 45.399-15.133 110.976-15.133 201.774s5.045 156.375 15.133 201.774c5.045 25.221 15.133 40.354 30.266 60.532 20.178 15.133 35.311 25.221 60.532 25.221 70.62 10.088 176.551 10.088 317.793 10.088s252.216-5.045 322.838-10.088c20.178 0 40.354-10.088 60.532-25.221 15.133-15.133 30.266-35.311 30.266-60.532 15.133-40.354 20.178-105.931 20.178-196.729v0zM365.715 960h60.532l-75.665-226.995v-156.375h-55.487v156.375c-5.045 25.221-15.133 65.577-35.311 121.064-15.133 40.354-25.221 75.665-35.311 105.931h60.532l40.354-151.33 40.354 151.33zM577.577 768.316v-100.886c0-30.266-5.045-55.487-15.133-70.62-15.133-20.178-35.311-30.266-60.532-30.266s-45.399 10.088-60.532 30.266c-10.088 15.133-15.133 40.354-15.133 70.62v100.886c0 30.266 5.045 50.444 15.133 65.577 15.133 20.178 35.311 30.266 60.532 30.266s45.399-10.088 60.532-30.266c10.088-10.088 15.133-35.311 15.133-65.577zM769.261 864.158v-287.527h-50.444v30.266c-20.178-25.221-40.354-35.311-60.532-35.311s-30.266 5.045-35.311 20.178c-5.045 10.088-5.045 25.221-5.045 45.399v226.995h50.444v-211.862c0-10.088 0-20.178 0-20.178 0-10.088 5.045-10.088 10.088-10.088 10.088 0 20.178 10.088 30.266 25.221v216.907h60.532z" />
<glyph unicode="&#x2263;" glyph-name="list" d="M0 504.889h113.777v-113.777h-113.777v113.777zM0 277.333h113.777v-113.777h-113.777v113.777zM0 732.444h113.777v-113.777h-113.777v113.777zM227.556 504.889h796.444v-113.777h-796.444v113.777zM227.556 277.333h796.444v-113.777h-796.444v113.777zM227.556 732.444h796.444v-113.777h-796.444v113.777z" />
<glyph unicode="&#x22ee;" glyph-name="more-items" d="M640 448c0-70.692-57.308-128-128-128s-128 57.308-128 128c0 70.692 57.308 128 128 128s128-57.308 128-128zM640 832c0-70.692-57.308-128-128-128s-128 57.308-128 128c0 70.692 57.308 128 128 128s128-57.308 128-128zM640 64c0-70.692-57.308-128-128-128s-128 57.308-128 128c0 70.692 57.308 128 128 128s128-57.308 128-128z" />
<glyph unicode="&#x22ef;" glyph-name="more-actions" d="M640.001 448c0-70.692-57.308-128-128-128s-128 57.308-128 128c0 70.692 57.308 128 128 128s128-57.308 128-128zM256 448c0-70.692-57.308-128-128-128s-128 57.308-128 128c0 70.692 57.308 128 128 128s128-57.308 128-128zM1024.001 448c0-70.692-57.308-128-128-128s-128 57.308-128 128c0 70.692 57.308 128 128 128s128-57.308 128-128z" />
<glyph unicode="&#x23f4;" glyph-name="chevron-left" d="M827.733 840.534l-119.466 119.466-512-512 512-512 119.466 119.466-392.534 392.534 392.534 392.534z" />
<glyph unicode="&#x23f5;" glyph-name="chevron-right" d="M196.267 55.466l119.466-119.466 512 512-512 512-119.466-119.466 392.534-392.534-392.534-392.534z" />
<glyph unicode="&#x23f6;" glyph-name="expand" d="M119.466 763.733l-119.466-119.466 512-512 512 512-119.466 119.466-392.534-392.534-392.534 392.534z" />
<glyph unicode="&#x23f7;" glyph-name="collapse" d="M904.534 132.267l119.466 119.466-512 512-512-512 119.466-119.466 392.534 392.534 392.534-392.534z" />
<glyph unicode="&#x25b2;" glyph-name="drop-down" d="M0 192l512 512 512-512z" />
<glyph unicode="&#x25bc;" glyph-name="drop-up" d="M1024 704l-512-512-512 512z" />
<glyph unicode="&#x25ef;" glyph-name="radio-button" d="M512 960c-281.6 0-512-230.4-512-512s230.4-512 512-512 512 230.4 512 512c0 281.6-230.4 512-512 512zM512 38.401c-225.279 0-409.599 184.32-409.599 409.599s184.32 409.599 409.599 409.599 409.599-184.32 409.599-409.599c0-225.279-184.32-409.599-409.599-409.599z" />
<glyph unicode="&#x2609;" glyph-name="radio-button-checked" d="M512 703.999c-143.36 0-255.999-112.64-255.999-255.999s112.64-255.999 255.999-255.999 255.999 112.64 255.999 255.999-112.64 255.999-255.999 255.999zM512 960c-281.6 0-512-230.4-512-512s230.4-512 512-512 512 230.4 512 512-230.4 512-512 512zM512 38.401c-225.279 0-409.599 184.32-409.599 409.599s184.32 409.599 409.599 409.599 409.599-184.32 409.599-409.599-184.32-409.599-409.599-409.599z" />
<glyph unicode="&#x2610;" glyph-name="checkbox" d="M910.222 846.222v-796.445h-796.445v796.445h796.445zM910.222 960h-796.445c-62.577 0-113.777-51.2-113.777-113.777v-796.445c0-62.577 51.2-113.777 113.777-113.777h796.445c62.577 0 113.777 51.2 113.777 113.777v796.445c0 62.577-51.2 113.777-113.777 113.777z" />
<glyph unicode="&#x2611;" glyph-name="checkbox-checked" d="M910.222 960h-796.445c-62.577 0-113.777-51.2-113.777-113.777v-796.445c0-62.577 51.2-113.777 113.777-113.777h796.445c62.577 0 113.777 51.2 113.777 113.777v796.445c0 62.577-51.2 113.777-113.777 113.777zM398.222 163.555l-284.444 284.444 79.644 79.644 204.8-204.8 432.357 432.357 79.644-79.644-512.001-512.001z" />
<glyph unicode="&#x2613;" glyph-name="cancel" d="M1024 448c0-281.6-230.4-512-512-512s-512 230.4-512 512 230.4 512 512 512 512-230.4 512-512zM803.84 663.040l-71.68 71.68-220.16-215.040-215.040 220.16-76.8-76.8 215.040-215.040-215.040-215.040 71.68-71.68 215.040 215.040 215.040-215.040 71.68 71.68-209.919 215.040 220.16 215.040z" />
<glyph unicode="&#x2661;" glyph-name="favorite" d="M745.244 846.223v0c113.777 0 221.867-68.267 221.867-199.111 0-193.423-301.511-466.489-455.111-580.267-153.6 119.467-455.111 392.533-455.111 580.267 0 136.533 113.777 199.111 216.177 199.111 85.333 0 153.6-39.823 193.423-102.4 11.377-17.067 28.444-28.444 51.2-28.444 0 0 0 0 0 0 22.756 0 39.823 11.377 51.2 34.133 28.444 56.889 96.711 96.711 176.356 96.711zM745.244 903.111c-96.711 0-187.733-45.511-233.244-136.533-51.2 91.023-147.911 136.533-238.933 136.533-136.533 0-273.067-91.023-273.067-256 0-284.444 512-654.223 512-654.223s512 369.777 512 654.223c0 164.977-142.223 256-278.756 256v0z" />
<glyph unicode="&#x2699;" glyph-name="settings" d="M591.36 908.799l15.36-112.64 5.12-30.72 25.6-10.24c25.6-10.24 51.2-25.6 76.8-40.96l25.6-15.36 20.48 5.12 107.52 46.080 81.92-138.24-92.16-71.68-20.48-15.36 5.12-30.72c0-15.36 5.12-30.72 5.12-46.080s0-25.6-5.12-46.080l-5.12-30.72 20.48-15.36 92.16-71.68-81.92-138.24-107.52 46.080-25.6 10.24-20.48-15.36c-25.6-20.48-51.2-35.84-76.8-46.080l-25.6-10.24-5.12-30.72-15.36-112.64h-158.72l-15.36 112.64-10.24 30.72-25.6 10.24c-25.6 10.24-51.2 25.6-76.8 40.96l-25.6 15.36-20.48-5.12-107.52-46.080-81.92 138.24 92.16 71.68 20.48 15.36-5.12 30.72c0 15.36-5.12 30.72-5.12 46.080s0 25.6 5.12 46.080l5.12 30.72-20.48 15.36-92.16 66.56 81.92 143.36 107.52-46.080 25.6-10.24 20.48 20.48c25.6 15.36 51.2 30.72 76.8 40.96l25.6 10.24 5.12 30.72 15.36 112.64h163.84zM509.44 217.599c128 0 230.4 102.4 230.4 230.4s-102.4 230.4-230.4 230.4-230.4-102.4-230.4-230.4 102.4-230.4 230.4-230.4zM611.84 960h-204.8c-10.24 0-25.6-10.24-25.6-20.48l-20.48-138.24c-30.72-10.24-56.32-30.72-87.040-51.2l-122.88 51.2c-5.12 5.12-10.24 5.12-10.24 5.12-10.24 0-20.48-5.12-25.6-15.36l-102.4-179.2c-5.12-5.12 0-20.48 10.24-30.72l107.52-81.92c0-15.36-5.12-30.72-5.12-51.2s0-35.84 5.12-51.2l-107.52-87.040c-10.24-5.12-10.24-20.48-5.12-30.72l102.4-179.2c0-5.12 10.24-10.24 20.48-10.24 5.12 0 5.12 0 10.24 0l128 51.2c25.6-20.48 56.32-35.84 87.040-51.2l20.48-133.12c0-10.24 10.24-20.48 25.6-20.48h204.8c10.24 0 25.6 10.24 25.6 20.48l20.48 133.12c30.72 10.24 61.44 30.72 87.040 51.2l128-51.2c5.12 0 5.12 0 10.24 0 10.24 0 15.36 5.12 20.48 15.36l102.4 179.2c5.12 10.24 5.12 25.6-5.12 30.72l-117.76 81.92c0 15.36 5.12 30.72 5.12 51.2s0 35.84-5.12 51.2l107.52 87.040c10.24 5.12 10.24 20.48 5.12 30.72l-102.4 179.2c0 5.12-10.24 10.24-20.48 10.24-5.12 0-5.12 0-10.24 0l-128-51.2c-25.6 20.48-56.32 35.84-87.040 51.2l-20.48 138.24c5.12 5.12-5.12 15.36-20.48 15.36v0zM509.44 268.799c-97.28 0-179.2 81.92-179.2 179.2s81.92 179.2 179.2 179.2 179.2-81.92 179.2-179.2-81.92-179.2-179.2-179.2v0z" />
<glyph unicode="&#x26a0;" glyph-name="warning" d="M458.666 128c0 32 21.334 53.334 53.334 53.334s53.334-21.334 53.334-53.334c0-32-21.334-53.334-53.334-53.334s-53.334 21.334-53.334 53.334zM480 234.667l-10.666 479.999h85.334l-10.666-479.999zM512 874.666c32 0 64-16 80-42.666l330.666-666.664c16-26.666 16-64 0-90.666s-48-48-80-48h-661.332c-32 0-64 16-80 48-16 26.666-16 64 0 90.666v0 0l330.666 666.664c16 26.666 48 42.666 80 42.666zM512 927.999c-48 0-96-26.666-128-74.666l-330.666-666.664c-53.334-96 16-218.666 128-218.666h661.332c112 0 181.334 122.666 128 218.666l-330.666 666.664c-32 53.334-80 74.666-128 74.666v0z" />
<glyph unicode="&#x26b2;" glyph-name="zoom-in" d="M0-23.955l320.357 320.357c-62.927 68.648-97.251 160.179-97.251 263.151 0 223.106 177.341 400.447 400.447 400.447s400.447-177.341 400.447-400.447c0-223.106-177.341-400.447-400.447-400.447-102.972 0-194.503 40.045-263.151 97.251l-320.357-320.357-40.045 40.045zM623.553 210.593c188.782 0 343.24 154.458 343.24 343.24s-154.458 343.24-343.24 343.24-343.24-154.458-343.24-343.24 154.458-343.24 343.24-343.24zM451.933 576.715h143.017v143.017h57.207v-143.017h143.017v-57.207h-143.017v-143.017h-57.207v143.017h-143.017z" />
<glyph unicode="&#x26da;" glyph-name="expand-media" d="M1001.245-64h-978.489c-11.377 0-22.756 11.377-22.756 22.756v972.8c0 17.067 11.377 28.444 22.756 28.444h972.8c17.067 0 28.444-11.377 28.444-28.444v-972.8c0-11.377-11.377-22.756-22.756-22.756zM51.201-12.8h921.6v921.6h-921.6v-921.6zM768.001 539.023c-11.377 0-22.756 11.377-22.756 22.756v113.777h-113.777c-11.377 0-22.756 11.377-22.756 22.756-5.689 17.067 5.689 34.133 17.067 34.133h142.223c17.067 0 28.444-17.067 28.444-28.444v-142.223c0-11.377-11.377-22.756-28.444-22.756v0zM256.001 539.023c-17.067 0-28.444 11.377-28.444 22.756v142.223c0 11.377 11.377 28.444 28.444 28.444h142.223c11.377 0 22.756-11.377 22.756-28.444 0-11.377-11.377-22.756-22.756-22.756h-113.777v-113.777c-5.689-17.067-17.067-28.444-28.444-28.444v0zM398.224 163.556h-142.223c-17.067 0-28.444 11.377-28.444 28.444v142.223c0 11.377 11.377 22.756 22.756 22.756s22.756-11.377 22.756-22.756v-113.777h113.777c11.377 0 22.756-11.377 22.756-22.756s0-34.133-11.377-34.133v0zM768.001 163.556h-142.223c-11.377 0-22.756 11.377-22.756 22.756s11.377 22.756 22.756 22.756h113.777v113.777c0 11.377 11.377 22.756 22.756 22.756s22.756-11.377 22.756-22.756v-142.223c11.377-5.689 0-17.067-17.067-17.067v0z" />
<glyph unicode="&#x2713;" glyph-name="check" d="M1024 746.165l-90.353 84.329-590.306-596.33-259.012 259.012-84.329-90.353 259.012-252.988h-6.024l90.353-84.329 84.329 84.329z" />
<glyph unicode="&#x27f3;" glyph-name="refresh" d="M910.221 447.999c0-221.867-176.356-398.223-398.223-398.223s-398.223 176.356-398.223 398.223c0 221.867 176.356 398.223 398.223 398.223 96.711 0 187.733-34.133 261.689-96.711l-130.844-130.844h324.267v318.577l-113.777-113.777c-91.023 91.023-216.177 136.533-341.333 136.533-284.444 0-512-227.556-512-512s227.556-512 512-512 512 227.556 512 512h-113.777z" />
<glyph unicode="&#x27f5;" glyph-name="arrow-left" d="M1024 512h-780.8l358.4 358.4-89.6 89.6-512-512 89.6-89.6 416-422.4 89.6 89.6-352.001 358.4h780.8z" />
<glyph unicode="&#x27f6;" glyph-name="arrow-right" d="M0 384h780.8l-358.4-358.4 89.6-89.6 512 512-89.6 89.6-416 422.4-96-89.6 358.4-358.4h-780.8z" />
<glyph unicode="&#x2b06;" glyph-name="upload" d="M15.515 960h992.97v-62.061h-992.97v62.061zM511.999 717.963l341.334-322.716h-186.182v-397.188h-297.891v403.393h-198.593l341.334 316.509zM511.999 804.848l-496.484-465.455h285.479v-403.393h428.218v403.393h279.273l-496.484 465.455z" />
<glyph unicode="&#x2b07;" glyph-name="download" d="M18.506-2.312h986.988v-61.687h-986.988v61.687zM660.047 898.315v-400.963h191.229l-339.277-320.771-339.277 320.771h185.060v400.963h302.265zM721.734 960h-425.638v-400.963h-277.59l493.493-462.65 493.493 462.65h-283.759v400.963z" />
<glyph unicode="&#x2b61;" glyph-name="arrow-up" d="M576-64v780.8l358.4-358.4 89.6 89.6-512 512-89.6-89.6-422.4-416 89.6-96 358.4 358.4v-780.8z" />
<glyph unicode="&#x2b63;" glyph-name="arrow-down" d="M448 960v-780.8l-358.4 358.4-89.6-89.6 512-512 89.6 89.6 422.4 416-89.6 96-358.4-358.4v780.8z" />
<glyph unicode="&#xe200;" glyph-name="joomla" d="M266.004 683.322c32.832 32.844 86.002 32.844 118.804 0.032l7.826-7.868 101.104 101.156-7.874 7.88c-57.624 57.7-138.514 77.878-212.42 60.522-10.594 65.182-67.088 114.924-135.174 114.956-75.65 0-136.954-61.442-136.97-137.158 0-65.336 45.59-120 106.662-133.83-23.138-77.45-4.242-164.834 56.846-225.984l227.826-227.9 100.996 101.214-227.81 227.886c-32.682 32.722-32.742 86.126 0.184 119.094zM1022.712 822.842c0.016 75.762-61.318 137.158-136.984 137.158-69.234 0-126.478-51.444-135.682-118.238-77.074 22.664-163.784 3.496-224.64-57.408l-227.84-227.9 101.102-101.172 227.766 227.856c32.94 32.966 85.988 32.906 118.684 0.184 32.8-32.83 32.8-86.114-0.032-118.956l-7.794-7.836 101.010-101.248 7.858 7.928c60.458 60.566 79.678 146.756 57.612 223.638 67.15 8.834 118.94 66.364 118.94 135.994zM906.266 208.936c18.102 74.458-1.976 156.324-60.108 214.5l-227.49 227.992-101.102-101.122 227.52-228.012c32.94-32.996 32.864-86.096 0.184-118.848-32.802-32.814-86.004-32.814-118.836 0.030l-7.766 7.79-100.994-101.246 7.732-7.728c61.516-61.594 149.618-80.438 227.368-56.488 12.632-62.682 67.934-109.804 134.258-109.804 75.604 0 136.968 61.35 136.968 137.126 0 69.2-51.18 126.456-117.734 135.81zM612.344 431.316l-227.536-227.992c-32.71-32.768-86.034-32.828-118.944 0.124-32.818 32.904-32.832 86.098-0.044 118.97l7.808 7.774-101.086 101.124-7.734-7.712c-58.76-58.802-78.56-141.834-59.45-216.982-60.398-14.26-105.358-68.634-105.358-133.496-0.016-75.746 61.332-137.126 136.982-137.126 65.1 0.032 119.588 45.418 133.54 106.382 74.702-18.552 156.998 1.304 215.344 59.756l227.49 227.96-101.012 101.218z" />
<glyph unicode="&#xe900;" glyph-name="italiapa" d="M626.938 662.261v-108.225l208.875-103.512c5.92-3.328 8.875-8.994 8.875-16.981 0-7.946-2.987-13.499-8.875-16.494l-208.875-107.9v-98.394l279.938 136.825c14.912 7.28 25.358 17.872 31.438 31.85 6.016 13.894 9.125 31.674 9.125 53.056 0 21.84-3.109 39.77-9.125 53.706-6.080 13.936-16.558 24.764-31.438 32.419zM461.062 661.449l-166.187-0.081v-107.981h165.938c11.072 0 20.744-3.237 26.312-10.725s8.375-18.396 8.375-32.581v-48.831c0-14.435-2.868-25.262-8.5-32.5s-13.963-10.887-24.875-10.887h-113.312c-5.792 0-11.194-1.394-16.25-4.306-4.992-2.912-9.381-6.87-13.125-11.862-3.744-5.034-6.7-10.817-8.813-17.306-2.176-6.573-3.25-13.595-3.25-21.125l-0.438-159.981h84l0.25 105.3h70.938c21.376 0 39.495 5.043 54.375 15.194s27.001 22.879 36.313 38.187c9.28 15.267 15.936 31.839 20 49.644 4.096 17.763 6.125 34.335 6.125 49.644v48.831c0 27.83-3.882 51.421-11.562 70.931-7.68 19.469-17.382 35.186-29.062 47.125-11.648 11.981-24.304 20.673-38 26.081-16.032 6.365-29.362 8.23-39.25 7.231zM167.75 661.367l-120.25-455.975h62.688l118.562 455.975zM1023.616 177.23l0.384 640.973c0 20.467-12.896 37.274-28.672 37.274l-767.808 2.829c-9.184-0.125-17.28-5.99-22.464-14.851-0.224-0.458-12.032-44.803-29.792-112.070h60.992l15.584 59.904h720.192l-0.128-614.182h-0.224l0.192-91.52v-0.374l-903.872 0.749 12.704 48.173h-62.976c-9.728-36.858-15.552-59.072-15.552-59.072-5.952-20.384 0.768-36.608 15.84-36.608 0 0 785.632-0.998 953.984-0.707v-0.083l23.136 0.25c14.528 0 26.624 14.269 28.448 32.573 0.128 1.539 0.256 3.078 0.256 4.659l-0.064 102.045h-0.16z" />
<glyph unicode="&#xe901;" glyph-name="spid-joomla" d="M218.724-63.488c-0.602 86.282 26.72 157.967 81.261 215.403 54.893 57.438 125.128 86.456 212.114 87.063 85.93 0.6 156.214-27.789 210.155-86.228 54.293-58.437 81.912-130.090 82.512-216.020zM376.735 807.752c18.067 18.067 47.333 18.067 65.382 0.018l4.314-4.332 55.627 55.662-4.332 4.332c-31.714 31.749-76.229 42.86-116.889 33.299-5.829 35.87-36.909 63.234-74.381 63.252-41.628 0-75.367-33.809-75.367-75.472 0-35.958 25.093-66.034 58.691-73.641-12.731-42.614-2.342-90.704 31.274-124.355l125.376-125.411 55.574 55.697-125.359 125.394c-17.979 18.014-18.014 47.386 0.106 65.541zM793.136 884.528c0 41.698-33.739 75.472-75.384 75.472-38.106 0-69.591-28.315-74.662-65.065-42.42 12.467-90.123 1.919-123.615-31.591l-125.376-125.411 55.627-55.68 125.341 125.376c18.12 18.137 47.315 18.102 65.312 0.106 18.049-18.067 18.049-47.386-0.018-65.453l-4.297-4.314 55.592-55.715 4.332 4.367c33.264 33.334 43.847 80.755 31.696 123.069 36.944 4.86 65.453 36.521 65.453 74.838zM729.057 546.699c9.967 40.976-1.092 86.020-33.070 118.033l-125.183 125.464-55.627-55.645 125.2-125.464c18.12-18.155 18.085-47.386 0.106-65.4-18.049-18.049-47.333-18.049-65.4 0.018l-4.279 4.279-55.574-55.715 4.261-4.244c33.845-33.897 82.34-44.269 125.112-31.080 6.956-34.496 37.384-60.417 73.888-60.417 41.61 0 75.367 33.756 75.367 75.455 0 38.088-28.157 69.591-64.784 74.733zM567.318 669.081l-125.218-125.464c-17.996-18.032-47.351-18.067-65.453 0.070-18.067 18.102-18.067 47.386-0.018 65.47l4.297 4.279-55.627 55.645-4.261-4.244c-32.33-32.365-43.23-78.043-32.718-119.407-33.228-7.854-57.969-37.771-57.969-73.465-0.018-41.681 33.756-75.455 75.384-75.455 35.817 0.018 65.805 24.987 73.482 58.532 41.099-10.213 86.39 0.722 118.491 32.876l125.183 125.447-55.592 55.697z" />
<glyph unicode="&#xe902;" glyph-name="spid" d="M514.798 359.838c-85.36 0-155.682 28.688-210.96 86.764-55.276 57.726-82.914 129.442-82.914 214.806 0 85.712 27.636 156.734 82.562 213.408s124.896 85.010 210.608 85.010c85.36 0 154.98-28.688 208.51-87.11 53.524-58.078 80.466-129.442 80.466-215.154 0-85.012-26.94-156.032-80.466-212.706-53.524-56.324-122.448-85.010-207.808-85.010zM220.926-60.326c0 85.712 27.636 156.732 82.212 213.408 54.926 56.674 124.896 85.010 211.308 85.010 85.36 0 154.98-28.688 208.16-87.11 53.524-58.428 80.466-129.794 80.466-215.154z" />
<glyph unicode="&#xe903;" glyph-name="designers-italia" d="M357.146 68.666v604.782h168.828v-605.858h-168.828zM1020.161 535.704h-154.294v-248.585c0-24.75 1.12-40.893 2.239-51.654 1.12-9.686 5.591-18.294 13.417-25.827s20.126-10.761 36.897-10.761l96.154 2.151 7.827-129.135c-55.903-11.837-99.508-18.294-128.578-18.294-76.029 0-127.459 16.142-154.294 49.502-27.952 32.284-41.368 92.546-41.368 180.789v558.509h168.828v-167.876h154.293v-138.82zM103.344 489.431c-29.070 0-53.667 9.685-72.674 29.055s-29.070 43.045-29.070 71.024c0 27.979 10.063 51.654 27.952 71.024 19.007 19.37 43.605 27.979 72.674 27.979s53.667-9.685 72.674-29.055c19.007-19.37 27.952-43.045 27.952-72.1s-8.945-51.654-27.952-71.024c-17.889-17.218-41.369-26.903-71.556-26.903z" />
<glyph unicode="&#xe904;" glyph-name="team-digitale" d="M1008.982-64h-993.963c-8.26 0-15.018 6.758-15.018 15.018v993.963c0 8.26 6.758 15.018 15.018 15.018h993.963c8.26 0 15.018-6.758 15.018-15.018v-993.963c0-8.26-6.758-15.018-15.018-15.018zM248.053 456.886c37.601 0 68.083 30.482 68.083 68.083s-30.482 68.083-68.083 68.083c-37.601 0-68.083-30.482-68.083-68.083s30.482-68.083 68.083-68.083zM426.667 149.582v-0.248h188.515c201.050 0 238.151 98.773 238.151 287.881 0 184.393-42.867 266.786-238.151 266.786h-188.515v-554.418zM615.182 606.22c110.302 0 121.081-47.401 121.081-168.758 0-123.342-10.779-190.101-121.081-190.101h-74.955v358.858h74.955z" />
<glyph unicode="&#xe905;" glyph-name="question" d="M448 256h128v-128h-128zM704 704c35.36 0 64-28.64 64-64v-192l-192-128h-128v64l192 128v64h-320v128h384zM512 864c-111.104 0-215.584-43.264-294.144-121.856s-121.856-183.040-121.856-294.144c0-111.104 43.264-215.584 121.856-294.144s183.040-121.856 294.144-121.856c111.104 0 215.584 43.264 294.144 121.856s121.856 183.040 121.856 294.144c0 111.104-43.264 215.584-121.856 294.144s-183.040 121.856-294.144 121.856zM512 960v0c282.784 0 512-229.216 512-512s-229.216-512-512-512c-282.784 0-512 229.216-512 512s229.216 512 512 512z" />
<glyph unicode="&#xe906;" glyph-name="office" d="M0-64h512v1024h-512v-1024zM320 832h128v-128h-128v128zM320 576h128v-128h-128v128zM320 320h128v-128h-128v128zM64 832h128v-128h-128v128zM64 576h128v-128h-128v128zM64 320h128v-128h-128v128zM576 640h448v-64h-448zM576-64h128v256h192v-256h128v576h-448z" />
<glyph unicode="&#xe907;" glyph-name="telegram" d="M512 960c-282.816 0-512-229.184-512-512s229.184-512 512-512 512 229.216 512 512-229.216 512-512 512zM763.616 608.992l-84-395.808c-5.792-28.192-22.784-34.784-46.4-21.792l-128 94.592-61.408-59.808c-7.2-7.008-12.8-12.8-25.6-12.8-16.608 0-13.792 6.208-19.392 22.016l-43.616 143.2-126.592 39.392c-27.392 8.384-27.584 27.2 6.208 40.608l493.184 190.4c22.4 10.208 44.192-5.408 35.616-40z" />
<glyph unicode="&#xe908;" glyph-name="user" d="M576 253.376v52.768c70.496 39.712 128 138.784 128 237.824 0 159.072 0 288-192 288s-192-128.928-192-288c0-99.072 57.504-198.112 128-237.824v-52.768c-217.088-17.76-384-124.416-384-253.376h896c0 128.96-166.912 235.648-384 253.376z" />
<glyph unicode="&#xe909;" glyph-name="phone" d="M704 320c-64-64-64-128-128-128s-128 64-192 128-128 128-128 192 64 64 128 128-128 256-192 256-192-192-192-192c0-128 131.488-387.488 256-512s384-256 512-256c0 0 192 128 192 192s-192 256-256 192z" />
<glyph unicode="&#xe90a;" glyph-name="exit" d="M113.75 960c-62.592 0-113.813-51.22-113.813-113.812v-796.437c0-62.592 51.221-113.813 113.813-113.813h412.426c62.592 0 113.824 51.221 113.824 113.813v104.937h-113.824v-104.937h-412.426v796.437h412.426v-104.875h113.824v104.875c0 62.592-51.232 113.812-113.824 113.812zM512 416h390.4l-179.2-179.2 48-44.8 252.8 256-252.8 256-48-44.8 179.2-179.2h-390.4z" />
<glyph unicode="&#xe90b;" glyph-name="fax" d="M164.571 740.571c50.286 0 91.429-41.143 91.429-91.429v-621.714c0-50.286-41.143-91.429-91.429-91.429h-73.143c-50.286 0-91.429 41.143-91.429 91.429v621.714c0 50.286 41.143 91.429 91.429 91.429h73.143zM950.857 647.424c43.447-25.161 73.143-72.558 73.143-126.281v-438.857c0-80.567-65.719-146.286-146.286-146.286h-493.714c-50.286 0-91.429 41.143-91.429 91.429v877.714c0 30.281 24.576 54.857 54.857 54.857h384c30.281 0 72.558-17.701 93.696-38.839l86.857-86.857c21.138-21.138 38.839-63.415 38.839-93.696v-93.147zM530.286 82.286v73.143c0 10.277-8.009 18.286-18.286 18.286h-73.143c-10.277 0-18.286-8.009-18.286-18.286v-73.143c0-10.277 8.009-18.286 18.286-18.286h73.143c10.277 0 18.286 8.009 18.286 18.286zM530.286 228.571v73.143c0 10.277-8.009 18.286-18.286 18.286h-73.143c-10.277 0-18.286-8.009-18.286-18.286v-73.143c0-10.277 8.009-18.286 18.286-18.286h73.143c10.277 0 18.286 8.009 18.286 18.286zM530.286 374.857v73.143c0 10.277-8.009 18.286-18.286 18.286h-73.143c-10.277 0-18.286-8.009-18.286-18.286v-73.143c0-10.277 8.009-18.286 18.286-18.286h73.143c10.277 0 18.286 8.009 18.286 18.286zM676.571 82.286v73.143c0 10.277-8.009 18.286-18.286 18.286h-73.143c-10.277 0-18.286-8.009-18.286-18.286v-73.143c0-10.277 8.009-18.286 18.286-18.286h73.143c10.277 0 18.286 8.009 18.286 18.286zM676.571 228.571v73.143c0 10.277-8.009 18.286-18.286 18.286h-73.143c-10.277 0-18.286-8.009-18.286-18.286v-73.143c0-10.277 8.009-18.286 18.286-18.286h73.143c10.277 0 18.286 8.009 18.286 18.286zM676.571 374.857v73.143c0 10.277-8.009 18.286-18.286 18.286h-73.143c-10.277 0-18.286-8.009-18.286-18.286v-73.143c0-10.277 8.009-18.286 18.286-18.286h73.143c10.277 0 18.286 8.009 18.286 18.286zM822.857 82.286v73.143c0 10.277-8.009 18.286-18.286 18.286h-73.143c-10.277 0-18.286-8.009-18.286-18.286v-73.143c0-10.277 8.009-18.286 18.286-18.286h73.143c10.277 0 18.286 8.009 18.286 18.286zM822.857 228.571v73.143c0 10.277-8.009 18.286-18.286 18.286h-73.143c-10.277 0-18.286-8.009-18.286-18.286v-73.143c0-10.277 8.009-18.286 18.286-18.286h73.143c10.277 0 18.286 8.009 18.286 18.286zM822.857 374.857v73.143c0 10.277-8.009 18.286-18.286 18.286h-73.143c-10.277 0-18.286-8.009-18.286-18.286v-73.143c0-10.277 8.009-18.286 18.286-18.286h73.143c10.277 0 18.286 8.009 18.286 18.286zM877.714 594.286v146.286h-91.429c-30.281 0-54.857 24.576-54.857 54.857v91.429h-365.714v-292.571h512z" />
<glyph unicode="&#xe90c;" glyph-name="gsuite" d="M759.262 670.116c-32.131 32.829-67.055 57.975-104.075 75.437s-83.819 25.844-137.603 25.844c-43.307 0-84.518-7.683-122.935-23.050s-71.945-37.020-100.583-64.96c-29.337-27.94-52.387-62.166-69.151-101.98s-25.146-83.819-25.146-132.714c0-48.894 8.382-92.9 25.146-132.714s39.814-73.342 69.151-101.281c29.337-27.94 63.563-50.291 101.98-65.658s80.327-23.050 124.332-23.050c46.799 0 88.010 6.286 122.935 19.558s64.96 31.432 90.106 53.784c16.764 15.367 32.131 34.226 45.402 56.578 13.271 23.050 23.749 48.196 31.432 76.136h-295.462v167.638h481.96c2.794-11.176 4.889-24.447 6.985-41.211s2.794-32.131 2.794-48.196c0-66.357-9.779-126.427-29.337-181.608s-49.593-103.377-88.709-145.985c-44.005-46.799-96.392-82.422-157.859-108.266s-132.015-38.417-210.945-38.417c-71.246 0-138.302 12.573-201.166 38.417s-118.045 61.467-165.543 106.869c-46.799 45.402-83.819 99.186-111.759 161.352s-41.211 131.317-41.211 205.357c0 74.040 13.97 142.493 41.211 205.357s64.261 116.648 111.759 162.050c46.799 45.402 101.98 80.327 165.543 106.171s130.618 38.417 201.166 38.417c81.025 0 152.97-13.97 215.136-41.91s115.95-66.357 161.352-115.251z" />
<glyph unicode="&#xe90d;" glyph-name="chevron-last" d="M128 840.544l119.456 119.456 512-512-512-512-119.456 119.456 392.544 392.544zM786.944 960l168.8 0.006c-0.017-341.333-0.008-682.667 0-1024l-168.8-0.006c0 341.333 0 682.667 0 1024z" />
<glyph unicode="&#xe90e;" glyph-name="chevron-first" d="M955.744 840.544l-119.456 119.456-512-512 512-512 119.456 119.456-392.544 392.544zM296.8 960l-168.8 0.006c0.017-341.333 0.008-682.667 0-1024l168.8-0.006c0 341.333 0 682.667 0 1024z" />
<glyph unicode="&#xe90f;" glyph-name="mobile" d="M736 960h-448c-52.8 0-96-43.2-96-96v-832c0-52.8 43.2-96 96-96h448c52.8 0 96 43.2 96 96v832c0 52.8-43.2 96-96 96zM384 912h256v-32h-256v32zM512 0c-35.36 0-64 28.64-64 64s28.64 64 64 64 64-28.64 64-64-28.64-64-64-64zM768 192h-512v640h512v-640z" />
<glyph unicode="&#xe911;" glyph-name="attachment" d="M665.824 632.96l-64.96 64.928-324.8-324.736c-53.824-53.792-53.824-141.056 0-194.848s141.056-53.792 194.88 0l389.76 389.696c89.728 89.664 89.728 235.072 0 324.736-89.664 89.696-235.104 89.696-324.768 0l-409.216-409.184c-0.288-0.288-0.608-0.576-0.864-0.832-125.088-125.088-125.088-327.84 0-452.896 125.056-125.056 327.872-125.056 452.992 0 0.288 0.288 0.512 0.576 0.832 0.864l0.032-0.032 279.328 279.296-64.992 64.928-279.328-279.264c-0.288-0.256-0.576-0.576-0.832-0.832-89.088-89.056-233.984-89.056-323.072 0-89.056 89.056-89.056 233.92 0 322.976 0.32 0.288 0.608 0.576 0.896 0.832l-0.032 0.064 409.28 409.152c53.696 53.728 141.152 53.728 194.88 0s53.696-141.152 0-194.848l-389.76-389.696c-17.92-17.92-47.040-17.92-64.96 0-17.888 17.888-17.888 47.040 0 64.928l324.8 324.768z" />
<glyph unicode="&#xe912;" glyph-name="zoom-out" d="M0-23.955l320.357 320.357c-62.927 68.648-97.251 160.179-97.251 263.151 0 223.106 177.341 400.447 400.447 400.447s400.447-177.341 400.447-400.447c0-223.106-177.341-400.447-400.447-400.447-102.972 0-194.503 40.045-263.151 97.251l-320.357-320.357-40.045 40.045zM617.832 210.593c188.782 0 343.24 154.458 343.24 343.24s-154.458 343.24-343.24 343.24-343.24-154.458-343.24-343.24 154.458-343.24 343.24-343.24zM795.172 588.157h-343.24v-57.207h343.24v57.207z" />
<glyph unicode="&#xe913;" glyph-name="earth" d="M512 960c-282.784 0-512-229.216-512-512s229.216-512 512-512 512 229.216 512 512-229.216 512-512 512zM512 0c-62.944 0-122.88 13.024-177.216 36.448l233.152 262.304c5.216 5.856 8.096 13.408 8.096 21.248v96c0 17.664-14.336 32-32 32-112.992 0-232.192 117.472-233.376 118.624-6.016 6.016-14.144 9.376-22.624 9.376h-128c-17.664 0-32-14.336-32-32v-192c0-12.128 6.848-23.2 17.696-28.608l110.304-55.168v-187.872c-116.064 80.96-192 215.424-192 367.648 0 68.704 15.488 133.792 43.136 192h116.864c8.48 0 16.64 3.36 22.624 9.376l128 128c6.016 6.016 9.376 14.144 9.376 22.624v77.408c40.576 12.064 83.52 18.592 128 18.592 70.4 0 136.992-16.256 196.288-45.184-4.16-3.488-8.192-7.168-12.032-11.040-36.256-36.256-56.224-84.48-56.224-135.776s19.968-99.488 56.224-135.776c36.448-36.448 85.216-56.256 135.648-56.256 3.168 0 6.336 0.064 9.504 0.224 13.824-51.808 38.752-186.656-8.416-372.32-0.448-1.76-0.704-3.488-0.832-5.216-81.312-83.072-194.688-134.656-320.128-134.656z" />
<glyph unicode="&#xe914;" glyph-name="star-full" d="M1024 562.944l-353.792 51.424-158.208 320.576-158.208-320.576-353.792-51.424 256-249.536-60.448-352.352 316.448 166.368 316.448-166.368-60.448 352.352 256 249.536z" />
<glyph unicode="&#xe915;" glyph-name="bubble" d="M512 896c282.784 0 512-186.24 512-416s-229.216-416-512-416c-27.168 0-53.824 1.728-79.84 5.056-109.984-109.984-241.248-129.696-368.16-132.608v26.912c68.544 33.568 128 94.752 128 164.64 0 9.76-0.768 19.328-2.176 28.704-115.808 76.256-189.824 192.768-189.824 323.296 0 229.76 229.216 416 512 416z" />
<glyph unicode="&#xe916;" glyph-name="it-arrow-down" d="M558.507 64l279.040 279.040c6.274 5.858 10.185 14.178 10.185 23.412 0 17.673-14.327 32-32 32-9.234 0-17.554-3.911-23.394-10.166l-0.017-0.019-247.467-247.040v640c0 17.673-14.327 32-32 32s-32-14.327-32-32v0-640l-247.040 246.187c-5.858 6.274-14.178 10.185-23.412 10.185-17.673 0-32-14.327-32-32 0-9.234 3.911-17.554 10.166-23.394l0.019-0.017 280.747-278.187c11.511-11.188 27.243-18.087 44.587-18.087s33.075 6.899 44.602 18.101l-0.015-0.015z" />
<glyph unicode="&#xe917;" glyph-name="it-arrow-down-circle" d="M665.6 396.8l29.867-29.867-183.467-183.467-183.467 183.467 29.867 29.867 132.267-132.267v396.8h42.667v-392.533zM938.667 448c0-235.641-191.025-426.667-426.667-426.667s-426.667 191.025-426.667 426.667c0 235.641 191.025 426.667 426.667 426.667v0c235.641 0 426.667-191.025 426.667-426.667v0zM896 448c0 212.077-171.923 384-384 384s-384-171.923-384-384c0-212.077 171.923-384 384-384v0c212.077 0 384 171.923 384 384v0z" />
<glyph unicode="&#xe918;" glyph-name="it-arrow-down-triangle" d="M392.533 448h238.933c23.305-0.338 42.067-19.309 42.067-42.662 0-11.634-4.656-22.181-12.207-29.878l0.007 0.007-149.333-153.6-149.333 153.6c-7.544 7.69-12.201 18.237-12.201 29.871 0 23.353 18.762 42.325 42.036 42.662h0.032z" />
<glyph unicode="&#xe919;" glyph-name="it-arrow-left" d="M148.48 382.72l278.187-279.040c5.741-5.887 13.751-9.539 22.613-9.539s16.872 3.652 22.607 9.532l0.006 0.007c5.782 5.789 9.359 13.784 9.359 22.613s-3.576 16.824-9.359 22.614v0l-246.187 247.040h640c17.673 0 32 14.327 32 32s-14.327 32-32 32v0h-640l247.040 247.040c5.715 5.82 9.243 13.805 9.243 22.613 0 17.83-14.454 32.283-32.283 32.283-9.021 0-17.178-3.7-23.035-9.665l-0.005-0.005-278.187-279.040c-11.669-11.531-18.895-27.535-18.895-45.227s7.227-33.696 18.889-45.221l0.006-0.006z" />
<glyph unicode="&#xe91a;" glyph-name="it-arrow-left-circle" d="M328.533 469.333h396.8v-42.667h-392.533l128-132.267-29.867-29.867-183.467 183.467 183.467 183.467 29.867-29.867zM938.667 448c0-235.641-191.025-426.667-426.667-426.667s-426.667 191.025-426.667 426.667c0 235.641 191.025 426.667 426.667 426.667v0c235.641 0 426.667-191.025 426.667-426.667v0zM896 448c0 212.077-171.923 384-384 384s-384-171.923-384-384c0-212.077 171.923-384 384-384v0c212.077 0 384 171.923 384 384v0z" />
<glyph unicode="&#xe91b;" glyph-name="it-arrow-left-triangle" d="M512 567.467v-238.933c-0.338-23.305-19.309-42.067-42.662-42.067-11.634 0-22.181 4.656-29.878 12.207l-149.326 149.326 149.333 149.333c7.69 7.544 18.237 12.201 29.871 12.201 23.353 0 42.325-18.762 42.662-42.036v-0.032z" />
<glyph unicode="&#xe91c;" glyph-name="it-arrow-right" d="M876.8 479.573l-279.467 279.040c-5.789 5.782-13.784 9.359-22.613 9.359s-16.824-3.576-22.614-9.359v0c-5.887-5.741-9.539-13.751-9.539-22.613s3.652-16.872 9.532-22.607l0.007-0.006 247.040-247.040h-640c-17.673 0-32-14.327-32-32s14.327-32 32-32v0h640l-244.48-247.040c-3.228-4.914-5.15-10.937-5.15-17.409 0-17.673 14.327-32 32-32 5.817 0 11.271 1.552 15.971 4.264l-0.155-0.082 279.040 279.040c11.591 11.648 18.757 27.709 18.757 45.443 0 17.521-6.994 33.408-18.342 45.023l0.012-0.012z" />
<glyph unicode="&#xe91d;" glyph-name="it-arrow-right-circle" d="M593.067 631.467l183.467-183.467-183.467-183.467-29.867 29.867 132.267 132.267h-396.8v42.667h392.533l-128 132.267zM938.667 448c0-235.641-191.025-426.667-426.667-426.667s-426.667 191.025-426.667 426.667c0 235.641 191.025 426.667 426.667 426.667v0c235.641 0 426.667-191.025 426.667-426.667v0zM896 448c0 212.077-171.923 384-384 384s-384-171.923-384-384c0-212.077 171.923-384 384-384v0c212.077 0 384 171.923 384 384v0z" />
<glyph unicode="&#xe91e;" glyph-name="it-arrow-right-triangle" d="M512 328.533v238.933c0.338 23.305 19.309 42.067 42.662 42.067 11.634 0 22.181-4.656 29.878-12.207l149.326-149.326-149.333-149.333c-7.69-7.544-18.237-12.201-29.871-12.201-23.353 0-42.325 18.762-42.662 42.036v0.032z" />
<glyph unicode="&#xe91f;" glyph-name="it-arrow-up" d="M469.333 792.747l-280.747-279.040c-5.782-5.789-9.359-13.784-9.359-22.613s3.576-16.824 9.359-22.614v0c5.741-5.887 13.751-9.539 22.613-9.539s16.872 3.652 22.607 9.532l0.006 0.007 247.040 247.040v-640c0-17.673 14.327-32 32-32s32 14.327 32 32v0 640l247.467-247.040c5.741-5.887 13.751-9.539 22.613-9.539s16.872 3.652 22.607 9.532l0.006 0.007c5.782 5.789 9.359 13.784 9.359 22.613s-3.576 16.824-9.359 22.614v0l-279.040 279.040c-11.596 10.996-27.302 17.758-44.587 17.758s-32.991-6.762-44.616-17.785l0.029 0.027z" />
<glyph unicode="&#xe920;" glyph-name="it-arrow-up-circle" d="M512 712.533l183.467-183.467-29.867-29.867-132.267 132.267v-396.8h-42.667v392.533l-132.267-128-29.867 29.867zM938.667 448c0-235.641-191.025-426.667-426.667-426.667s-426.667 191.025-426.667 426.667c0 235.641 191.025 426.667 426.667 426.667v0c235.641 0 426.667-191.025 426.667-426.667v0zM896 448c0 212.077-171.923 384-384 384s-384-171.923-384-384c0-212.077 171.923-384 384-384v0c212.077 0 384 171.923 384 384v0z" />
<glyph unicode="&#xe921;" glyph-name="it-arrow-up-triangle" d="M631.467 448h-238.933c-23.305 0.338-42.067 19.309-42.067 42.662 0 11.634 4.656 22.181 12.207 29.878l149.326 149.326 149.333-149.333c7.544-7.69 12.201-18.237 12.201-29.871 0-23.353-18.762-42.325-42.036-42.662h-0.032z" />
<glyph unicode="&#xe922;" glyph-name="it-ban" d="M512 874.667c-234.667 0-426.667-192-426.667-426.667s192-426.667 426.667-426.667 426.667 192 426.667 426.667-192 426.667-426.667 426.667zM221.867 209.067c-59.733 68.267-89.6 153.6-89.6 243.2s29.867 174.933 89.6 243.2l541.867-541.867c-166.4-132.267-409.6-106.667-541.867 55.467zM793.6 187.733l-541.867 541.867c157.867 140.8 401.067 128 541.867-29.867 132.267-145.067 132.267-366.933 0-512z" />
<glyph unicode="&#xe923;" glyph-name="it-behance" d="M334.080 714.667c0.723 0.006 1.578 0.009 2.434 0.009 23.292 0 46.040-2.333 68.021-6.778l-2.189 0.369c20.050-3.949 37.82-11.531 53.415-22.084l-0.508 0.324c14.63-9.999 26.247-23.394 33.873-39.087l0.26-0.593c7.604-16.731 12.036-36.282 12.036-56.869 0-1.757-0.032-3.507-0.096-5.249l0.007 0.252c0.048-1.232 0.075-2.679 0.075-4.132 0-22.862-6.709-44.157-18.266-62.023l0.271 0.448c-13.633-18.532-31.625-33.1-52.502-42.338l-0.831-0.328c29.755-7.581 54.603-25.075 71.422-48.685l0.258-0.382c15.045-22.326 24.015-49.83 24.015-79.428 0-2.077-0.044-4.143-0.132-6.198l0.010 0.293c0.085-1.853 0.133-4.026 0.133-6.211 0-22.384-5.085-43.581-14.162-62.498l0.376 0.869c-10.395-19.311-24.807-35.223-42.21-47.067l-0.457-0.293c-17.056-12.060-36.992-21.454-58.468-27.028l-1.266-0.279c-18.76-4.92-40.297-7.745-62.494-7.745-2.030 0-4.054 0.024-6.073 0.071l0.3-0.006h-256v522.667zM319.147 501.333c0.743-0.023 1.618-0.036 2.495-0.036 18.042 0 34.777 5.599 48.56 15.155l-0.282-0.185c12.177 10.090 19.876 25.217 19.876 42.142 0 1.837-0.091 3.653-0.268 5.444l0.018-0.226c0.163 1.694 0.255 3.663 0.255 5.653 0 9.56-2.139 18.62-5.964 26.729l0.162-0.382c-4.343 7.639-10.409 13.842-17.696 18.222l-0.224 0.125c-7.135 4.158-15.442 7.279-24.277 8.889l-0.47 0.071c-8.040 1.65-17.281 2.595-26.743 2.595-1.098 0-2.194-0.013-3.286-0.038l0.162 0.003h-109.227v-122.453zM325.547 278.613c0.525-0.006 1.144-0.010 1.764-0.010 10.7 0 21.145 1.091 31.231 3.168l-0.995-0.171c10.091 2.925 18.894 7.303 26.7 12.971l-0.247-0.171c7.825 5.402 14.157 12.416 18.618 20.596l0.155 0.311c4.348 9.127 6.888 19.834 6.888 31.134 0 1.055-0.022 2.104-0.066 3.148l0.005-0.149c0.114 1.499 0.18 3.248 0.18 5.011 0 20.031-8.417 38.096-21.907 50.852l-0.033 0.031c-15.643 10.745-34.99 17.161-55.835 17.161-1.521 0-3.034-0.034-4.539-0.102l0.214 0.008h-125.44v-144.213zM689.92 282.027c16.306-14.423 37.872-23.229 61.494-23.229 2.082 0 4.149 0.068 6.197 0.203l-0.278-0.015c0.212-0.002 0.463-0.003 0.714-0.003 19.592 0 37.807 5.895 52.968 16.008l-0.349-0.219c12.586 7.925 22.239 19.506 27.574 33.241l0.159 0.465h91.733c-10.76-40.505-34.715-74.302-66.891-97.351l-0.522-0.355c-29.574-18.537-65.516-29.533-104.025-29.533-2.129 0-4.251 0.034-6.364 0.1l0.309-0.008c-0.893-0.013-1.947-0.020-3.003-0.020-28.040 0-54.872 5.172-79.595 14.614l1.53-0.513c-46.866 18.695-82.824 56.187-99.051 102.908l-0.362 1.198c-8.665 22.92-13.682 49.417-13.682 77.085 0 1.25 0.010 2.497 0.031 3.742l-0.002-0.188c-0.007 0.646-0.011 1.409-0.011 2.173 0 27.737 5.17 54.268 14.598 78.679l-0.507-1.492c9.035 24.781 22.55 45.983 39.718 63.612l-0.038-0.039c17.088 17.714 37.488 32.101 60.221 42.184l1.219 0.483c22.456 9.724 48.606 15.381 76.078 15.381 1.004 0 2.006-0.008 3.007-0.023l-0.151 0.002c1.276 0.032 2.779 0.050 4.286 0.050 29.51 0 57.396-6.951 82.111-19.305l-1.064 0.481c23.317-12.528 42.717-29.474 57.694-49.871l0.333-0.476c15.138-20.447 26.644-44.586 33-70.741l0.28-1.366c5.121-19.422 8.062-41.719 8.062-64.702 0-7.261-0.294-14.454-0.869-21.567l0.061 0.936h-272.213c-0.030-0.94-0.047-2.045-0.047-3.154 0-26.558 9.706-50.85 25.765-69.52l-0.118 0.141zM810.667 481.28c-13.925 13.071-32.717 21.1-53.384 21.1-1.934 0-3.852-0.070-5.751-0.209l0.254 0.015c-1.54 0.099-3.339 0.156-5.151 0.156-13.657 0-26.565-3.208-38.011-8.912l0.495 0.223c-10.514-5.118-19.34-12.17-26.343-20.767l-0.11-0.14c-6.341-7.378-11.191-16.234-13.961-25.966l-0.119-0.487c-2.274-7.334-3.938-15.901-4.664-24.733l-0.029-0.44h170.667c-1.344 23.099-10.15 43.914-24.018 60.311l0.124-0.151zM642.987 679.68h212.48v-51.627h-212.48v51.627z" />
<glyph unicode="&#xe924;" glyph-name="it-bookmark" d="M768-8.533l-256 256-256-256v883.2h512v-883.2zM512 307.2l213.333-213.333v738.133h-426.667v-738.133l213.333 213.333z" />
<glyph unicode="&#xe925;" glyph-name="it-bootstrap" d="M166.9 960h690.367c90.987 0 164.747-73.76 164.747-164.747v-694.587c0-90.987-73.76-164.747-164.747-164.747h-690.367c-90.987 0-164.747 73.76-164.747 164.747v694.587c0 90.987 73.76 164.747 164.747 164.747zM519.785 519.13c26.045 0 45.795 5.665 59.247 16.996s20.178 28.043 20.178 50.138c0 21.811-6.726 38.382-20.178 49.713-13.453 11.613-33.202 17.42-59.247 17.421h-91.447v-134.267h91.447zM525.367 241.674c33.201 0 58.102 6.94 74.703 20.82 16.886 13.88 25.33 34.841 25.33 62.885 0 27.476-8.301 48.013-24.901 61.61-16.601 13.88-41.645 20.82-75.132 20.82h-97.028v-166.134h97.028zM679.066 469.843c35.49-10.198 62.967-29.035 82.431-56.511 19.462-27.477 29.194-61.185 29.194-101.125-0.001-61.185-20.894-106.79-62.682-136.816s-105.329-45.039-190.621-45.039h-274.34v634.369h248.151c89.013-0.001 153.412-13.314 193.197-39.94 40.070-26.627 60.105-69.258 60.106-127.893-0.001-30.876-7.299-57.22-21.896-79.030-14.598-21.528-35.778-37.533-63.54-48.013z" />
<glyph unicode="&#xe926;" glyph-name="it-box" d="M896 874.667h-768v-170.667h42.667v-682.667h682.667v682.667h42.667v170.667zM810.667 64h-597.333v640h597.333v-640zM853.333 746.667h-682.667v85.333h682.667v-85.333zM341.333 618.667h341.333v-42.667h-341.333v42.667z" />
<glyph unicode="&#xe927;" glyph-name="it-burger" d="M119.893 193.707h785.92c17.673 0 32-14.327 32-32s-14.327-32-32-32h-785.92c-17.673 0-32 14.327-32 32s14.327 32 32 32zM119.893 765.013h785.92c17.673 0 32-14.327 32-32s-14.327-32-32-32h-785.92c-17.673 0-32 14.327-32 32s14.327 32 32 32zM119.893 479.147h785.92c17.673 0 32-14.327 32-32s-14.327-32-32-32h-785.92c-17.673 0-32 14.327-32 32s14.327 32 32 32z" />
<glyph unicode="&#xe928;" glyph-name="it-calendar" d="M896 576v42.667c0 70.692-57.308 128-128 128v0h-23.467v42.667c0 23.564-19.103 42.667-42.667 42.667s-42.667-19.103-42.667-42.667v0-42.667h-298.667v42.667c0 23.564-19.103 42.667-42.667 42.667s-42.667-19.103-42.667-42.667v0-42.667h-19.2c-70.692 0-128-57.308-128-128v0-426.667c0-70.692 57.308-128 128-128v0h512c70.692 0 128 57.308 128 128v0 384zM659.627 746.667h85.333v-42.667c0-23.564-19.103-42.667-42.667-42.667s-42.667 19.103-42.667 42.667v0zM275.627 746.667h85.333v-42.667c0-23.564-19.103-42.667-42.667-42.667s-42.667 19.103-42.667 42.667v0zM853.333 192c0-47.128-38.205-85.333-85.333-85.333v0h-512c-47.128 0-85.333 38.205-85.333 85.333v0 341.333h682.667z" />
<glyph unicode="&#xe929;" glyph-name="it-camera" d="M790.187 683.093h-40.533c-9.76 0.057-17.963 6.659-20.445 15.637l-0.035 0.15-13.653 52.907c-2.527 9.167-10.79 15.789-20.6 15.789-0.108 0-0.215-0.001-0.323-0.002h-263.237c-9.76-0.057-17.963-6.659-20.445-15.637l-0.035-0.15-13.653-52.907c-2.517-9.128-10.72-15.73-20.474-15.787h-55.899c0 17.909-14.518 32.427-32.427 32.427v0h-62.72c-0.001 0-0.002 0-0.003 0-17.994 0-32.61-14.467-32.85-32.404v-0.023c-0.116-0.96-0.182-2.072-0.182-3.2s0.066-2.24 0.195-3.333l-0.013 0.133c-62.637-18.695-107.52-75.786-107.52-143.36v0-256c0-0.127-0.001-0.277-0.001-0.427 0-82.089 66.425-148.664 148.458-148.906h554.69c0.38-0.004 0.83-0.006 1.281-0.006 82.239 0 148.907 66.668 148.907 148.907 0 0.152 0 0.304-0.001 0.456v-0.024 256c0 0.127 0.001 0.278 0.001 0.429 0 82.175-66.374 148.847-148.435 149.331h-0.046zM896 277.333c0.001-0.127 0.001-0.277 0.001-0.428 0-58.525-47.323-105.997-105.791-106.239h-554.69c-0.381-0.005-0.831-0.008-1.281-0.008-58.675 0-106.24 47.565-106.24 106.24 0 0.153 0 0.305 0.001 0.458v-0.024 128h256c11.118-90.464 87.486-159.826 180.053-159.826s168.936 69.362 179.965 158.947l0.088 0.879h151.893zM426.667 427.947c4.21 73.894 65.16 132.222 139.733 132.222s135.523-58.328 139.716-131.851l0.017-0.371c-4.21-73.894-65.16-132.222-139.733-132.222s-135.523 58.328-139.716 131.851l-0.017 0.371zM896 448h-150.187c-6.702 94.653-85.133 168.901-180.907 168.901s-174.205-74.248-180.874-168.323l-0.033-0.578h-256v85.333c-0.001 0.128-0.001 0.279-0.001 0.43 0 58.611 47.272 106.18 105.768 106.663h142.979c29.512 0.177 54.306 20.169 61.761 47.335l0.106 0.452 9.387 36.693h230.4l9.387-36.693c7.43-27.7 32.302-47.765 61.864-47.787h40.536c58.543-0.483 105.814-48.053 105.814-106.663 0-0.151 0-0.302-0.001-0.453v0.023z" />
<glyph unicode="&#xe92a;" glyph-name="it-card" d="M810.667 746.667h-597.333c-70.692 0-128-57.308-128-128v0-341.333c0-70.692 57.308-128 128-128v0h597.333c70.692 0 128 57.308 128 128v0 341.333c0 70.692-57.308 128-128 128v0zM213.333 704h597.333c47.128 0 85.333-38.205 85.333-85.333v0h-768c0 47.128 38.205 85.333 85.333 85.333v0zM810.667 192h-597.333c-47.128 0-85.333 38.205-85.333 85.333v0 233.813h768v-233.813c0-47.128-38.205-85.333-85.333-85.333v0zM256.427 427.947h171.093v-42.667h-171.093v42.667z" />
<glyph unicode="&#xe92b;" glyph-name="it-chart-line" d="M896 106.667v-42.667h-768v768h42.667v-725.333zM448 567.467l106.667-106.667 256 256v-162.133h42.667v234.667h-234.667v-42.667h162.133l-226.133-226.133-106.667 106.667-183.467-183.467 25.6-34.133z" />
<glyph unicode="&#xe92c;" glyph-name="it-check" d="M843.947 627.2c-5.741 5.887-13.751 9.539-22.613 9.539s-16.872-3.652-22.607-9.532l-0.006-0.007-324.267-324.267-143.36 145.067c-5.851 5.645-13.826 9.122-22.613 9.122-17.998 0-32.589-14.591-32.589-32.589 0-9.211 3.822-17.53 9.966-23.457l0.010-0.009 143.36-143.36c11.625-11.463 27.599-18.543 45.227-18.543s33.602 7.079 45.234 18.55l324.26 324.26c5.782 5.789 9.359 13.784 9.359 22.613s-3.576 16.824-9.359 22.614v0z" />
<glyph unicode="&#xe92d;" glyph-name="it-check-circle" d="M853.333 445.867q0 17.493 0 34.56v0c-1.121 10.887-10.244 19.306-21.333 19.306-11.841 0-21.44-9.599-21.44-21.44 0-0.751 0.039-1.494 0.114-2.225l-0.008 0.092c0-9.813 0-20.053 0-30.293-0.127-164.853-133.796-298.443-298.667-298.443-164.949 0-298.667 133.718-298.667 298.667s133.718 298.667 298.667 298.667c55.503 0 107.471-15.14 151.997-41.516l-1.384 0.759 8.107-5.12c3.21-2.031 7.118-3.236 11.307-3.236 11.802 0 21.37 9.567 21.37 21.37 0 7.613-3.981 14.296-9.975 18.081l-0.088 0.052-8.533 5.12c-49.459 29.51-109.078 46.956-172.773 46.956-188.513 0-341.333-152.82-341.333-341.333s152.82-341.333 341.333-341.333c187.005 0 338.886 150.385 341.304 336.816l0.002 0.228zM882.773 707.84c-5.789 5.782-13.784 9.359-22.613 9.359s-16.824-3.576-22.614-9.359v0l-325.547-324.267-111.787 113.067c-5.699 5.321-13.376 8.588-21.815 8.588-17.673 0-32-14.327-32-32 0-8.44 3.267-16.116 8.606-21.834l-0.017 0.019 114.347-113.067c11.531-11.669 27.535-18.895 45.227-18.895s33.696 7.227 45.221 18.889l322.993 322.993c6.289 5.79 10.215 14.063 10.215 23.253s-3.926 17.463-10.193 23.233l-0.022 0.020z" />
<glyph unicode="&#xe92e;" glyph-name="it-chevron-left" d="M437.333 448l202.667 203.52c5.782 5.789 9.359 13.784 9.359 22.613s-3.576 16.824-9.359 22.614v0c-5.741 5.887-13.751 9.539-22.613 9.539s-16.872-3.652-22.607-9.532l-0.006-0.007-202.667-203.52c-11.463-11.625-18.543-27.599-18.543-45.227s7.079-33.602 18.55-45.234l-0.007 0.007 205.227-203.52c5.741-5.887 13.751-9.539 22.613-9.539s16.872 3.652 22.607 9.532l0.006 0.007c5.782 5.789 9.359 13.784 9.359 22.613s-3.576 16.824-9.359 22.614v0z" />
<glyph unicode="&#xe92f;" glyph-name="it-chevron-right" d="M586.667 448l-202.667-203.52c-5.782-5.789-9.359-13.784-9.359-22.613s3.576-16.824 9.359-22.614v0c5.741-5.887 13.751-9.539 22.613-9.539s16.872 3.652 22.607 9.532l0.006 0.007 203.947 203.52c11.463 11.625 18.543 27.599 18.543 45.227s-7.079 33.602-18.55 45.234l0.007-0.007-206.507 203.52c-5.599 5.144-13.098 8.298-21.333 8.298s-15.735-3.153-21.356-8.318l0.023 0.021c-5.782-5.789-9.359-13.784-9.359-22.613s3.576-16.824 9.359-22.614v0z" />
<glyph unicode="&#xe930;" glyph-name="it-clip" d="M469.333 21.333c-1.295-0.049-2.816-0.076-4.343-0.076-68.336 0-123.733 55.397-123.733 123.733 0 1.527 0.028 3.048 0.083 4.562l-0.006-0.219v554.667c0 94.257 76.41 170.667 170.667 170.667s170.667-76.41 170.667-170.667v0-426.667h-42.667v426.667c0 70.692-57.308 128-128 128s-128-57.308-128-128v0-554.667c0-47.128 38.205-85.333 85.333-85.333s85.333 38.205 85.333 85.333v0 469.333c0 23.564-19.103 42.667-42.667 42.667s-42.667-19.103-42.667-42.667v0-341.333h-42.667v341.333c0 47.128 38.205 85.333 85.333 85.333s85.333-38.205 85.333-85.333v0-469.333c0.049-1.295 0.076-2.816 0.076-4.343 0-68.336-55.397-123.733-123.733-123.733-1.527 0-3.048 0.028-4.562 0.083l0.219-0.006z" />
<glyph unicode="&#xe931;" glyph-name="it-clock" d="M512 832c211.932-0.192 383.662-172.041 383.662-384 0-105.955-42.913-201.887-112.306-271.364l0.004 0.004c-69.48-69.374-165.41-112.276-271.36-112.276-212.112 0-384.063 171.951-384.063 384.063 0 106.162 43.074 202.264 112.698 271.782l0.005 0.005c68.969 69.066 164.301 111.791 269.611 111.791 0.615 0 1.229-0.001 1.844-0.004h-0.095zM512 874.667c-0.027 0-0.059 0-0.091 0-235.641 0-426.667-191.025-426.667-426.667s191.025-426.667 426.667-426.667c235.641 0 426.667 191.025 426.667 426.667 0 117.798-47.738 224.447-124.924 301.655l0.001-0.001c-76.762 77.221-183.052 125.015-300.506 125.015-0.404 0-0.807-0.001-1.21-0.002h0.063zM722.773 254.72l-189.867 189.44v283.733c0 11.782-9.551 21.333-21.333 21.333s-21.333-9.551-21.333-21.333v0-300.8l201.813-201.813c3.822-3.822 9.102-6.186 14.933-6.186 11.664 0 21.119 9.455 21.119 21.119 0 5.832-2.364 11.112-6.186 14.933v0z" />
<glyph unicode="&#xe932;" glyph-name="it-close" d="M692.907 312.32l-135.68 135.68 135.68 135.68c6.274 5.858 10.185 14.178 10.185 23.412 0 17.673-14.327 32-32 32-9.234 0-17.554-3.911-23.394-10.166l-0.017-0.019-135.68-135.68-135.68 135.68c-5.858 6.274-14.178 10.185-23.412 10.185-17.673 0-32-14.327-32-32 0-9.234 3.911-17.554 10.166-23.394l0.019-0.017 135.68-135.68-135.68-135.68c-6.274-5.858-10.185-14.178-10.185-23.412 0-17.673 14.327-32 32-32 9.234 0 17.554 3.911 23.394 10.166l0.017 0.019 135.68 135.68 135.68-135.68c5.699-5.321 13.376-8.588 21.815-8.588 17.673 0 32 14.327 32 32 0 8.44-3.267 16.116-8.606 21.834l0.017-0.019z" />
<glyph unicode="&#xe933;" glyph-name="it-close-big" d="M542.293 448l317.867 317.867c3.876 3.876 6.274 9.232 6.274 15.147 0 11.83-9.59 21.421-21.421 21.421-5.915 0-11.27-2.398-15.147-6.274l-317.867-317.867-316.587 316.587c-3.876 3.876-9.232 6.274-15.147 6.274-11.83 0-21.421-9.59-21.421-21.421 0-5.915 2.398-11.27 6.274-15.147l316.587-316.587-317.867-317.867c-3.876-3.876-6.274-9.232-6.274-15.147 0-11.83 9.59-21.421 21.421-21.421 5.915 0 11.27 2.398 15.147 6.274l317.867 317.867 316.587-316.587c3.876-3.876 9.232-6.274 15.147-6.274 11.83 0 21.421 9.59 21.421 21.421 0 5.915-2.398 11.27-6.274 15.147v0z" />
<glyph unicode="&#xe934;" glyph-name="it-close-circle" d="M512 832c0.1 0 0.218 0 0.336 0 212.077 0 384-171.923 384-384s-171.923-384-384-384c-212.077 0-384 171.923-384 384 0 106.379 43.257 202.656 113.142 272.198l0.015 0.015c69.033 69.066 164.42 111.787 269.785 111.787 0.254 0 0.507 0 0.761-0.001h-0.039zM512 874.667c-234.947-0.917-425.054-191.589-425.054-426.664 0-235.641 191.025-426.667 426.667-426.667s426.667 191.025 426.667 426.667c0 118.009-47.909 224.828-125.338 302.068l-0.009 0.009c-77.173 76.986-183.688 124.59-301.32 124.59-0.567 0-1.134-0.001-1.701-0.003h0.088zM663.893 342.613l-105.387 105.387 105.387 105.387c5.708 5.902 9.225 13.954 9.225 22.827s-3.517 16.924-9.234 22.836l0.009-0.009c-5.789 5.782-13.784 9.359-22.613 9.359s-16.824-3.576-22.614-9.359v0l-106.667-105.813-104.533 105.813c-5.789 5.782-13.784 9.359-22.613 9.359s-16.824-3.576-22.614-9.359v0c-5.708-5.902-9.225-13.954-9.225-22.827s3.517-16.924 9.234-22.836l-0.009 0.009 107.093-105.387-107.093-105.387c-5.708-5.902-9.225-13.954-9.225-22.827s3.517-16.924 9.234-22.836l-0.009 0.009c5.789-5.782 13.784-9.359 22.613-9.359s16.824 3.576 22.614 9.359v0l104.533 105.813 105.813-105.813c5.789-5.782 13.784-9.359 22.613-9.359s16.824 3.576 22.614 9.359v0c5.968 5.949 9.66 14.177 9.66 23.268 0 8.659-3.35 16.536-8.824 22.405l0.018-0.019z" />
<glyph unicode="&#xe935;" glyph-name="it-code-circle" d="M512 832c212.077 0 384-171.923 384-384s-171.923-384-384-384c-212.077 0-384 171.923-384 384v0c0 212.077 171.923 384 384 384v0zM512 874.667c-235.641 0-426.667-191.025-426.667-426.667s191.025-426.667 426.667-426.667c235.641 0 426.667 191.025 426.667 426.667v0c0 235.641-191.025 426.667-426.667 426.667v0zM451.999 264.433l78.002 375.994c2.393 11.536 13.686 18.948 25.222 16.555s18.948-13.686 16.555-25.222l-78.002-375.994c-2.393-11.536-13.686-18.948-25.222-16.555s-18.948 13.686-16.555 25.222zM341.333 448l75.947 75.947c3.771 3.845 6.098 9.117 6.098 14.933s-2.327 11.088-6.102 14.937l0.003-0.003c-3.867 3.898-9.225 6.31-15.147 6.31s-11.28-2.413-15.145-6.309l-0.001-0.001-75.947-75.52c-7.795-7.733-12.621-18.45-12.621-30.293s4.826-22.56 12.618-30.291l0.003-0.003 75.947-75.52c3.867-3.898 9.225-6.31 15.147-6.31s11.28 2.413 15.145 6.309l0.001 0.001c3.771 3.845 6.098 9.117 6.098 14.933s-2.327 11.088-6.102 14.937l0.003-0.003zM712.96 478.293l-75.947 75.52c-3.867 3.898-9.225 6.31-15.147 6.31s-11.28-2.413-15.145-6.309l-0.001-0.001c-3.771-3.845-6.098-9.117-6.098-14.933s2.327-11.088 6.102-14.937l75.944-75.944-75.947-75.947c-3.771-3.845-6.098-9.117-6.098-14.933s2.327-11.088 6.102-14.937l-0.003 0.003c3.867-3.898 9.225-6.31 15.147-6.31s11.28 2.413 15.145 6.309l0.001 0.001 75.947 75.52c7.795 7.733 12.621 18.45 12.621 30.293s-4.826 22.56-12.618 30.291l-0.003 0.003z" />
<glyph unicode="&#xe936;" glyph-name="it-collapse" d="M512 522.667l203.52-202.667c5.789-5.782 13.784-9.359 22.613-9.359s16.824 3.576 22.614 9.359v0c5.887 5.741 9.539 13.751 9.539 22.613s-3.652 16.872-9.532 22.607l-0.007 0.006-203.52 202.667c-11.625 11.463-27.599 18.543-45.227 18.543s-33.602-7.079-45.234-18.55l0.007 0.007-203.52-205.227c-5.887-5.741-9.539-13.751-9.539-22.613s3.652-16.872 9.532-22.607l0.007-0.006c5.789-5.782 13.784-9.359 22.613-9.359s16.824 3.576 22.614 9.359v0z" />
<glyph unicode="&#xe937;" glyph-name="it-comment" d="M768 779.52c0.635 0.017 1.383 0.027 2.133 0.027 47.128 0 85.333-38.205 85.333-85.333 0-0.009 0-0.019 0-0.028v0.002-341.333c0-0.008 0-0.017 0-0.027 0-47.128-38.205-85.333-85.333-85.333-0.75 0-1.498 0.010-2.244 0.029l0.11-0.002h-293.12l-11.947-9.813-143.36-118.187v128h-63.573c-0.635-0.017-1.383-0.027-2.133-0.027-47.128 0-85.333 38.205-85.333 85.333 0 0.009 0 0.019 0 0.028v-0.002 341.333c0 0.008 0 0.017 0 0.027 0 47.128 38.205 85.333 85.333 85.333 0.75 0 1.498-0.010 2.244-0.029l-0.11 0.002h512zM768 822.187h-512c-70.692 0-128-57.308-128-128v0-341.333c0-0.005 0-0.011 0-0.018 0-70.692 57.308-128 128-128 0.75 0 1.499 0.006 2.246 0.019l-0.112-0.002h19.627v-128c0-12.018 9.742-21.76 21.76-21.76v0c0.052 0 0.113-0.001 0.174-0.001 4.171 0 8.083 1.108 11.458 3.047l-0.112-0.059 179.627 146.773h277.333c0.635-0.011 1.383-0.018 2.133-0.018 70.692 0 128 57.308 128 128 0 0.006 0 0.012 0 0.019v-0.001 341.333c0 0.005 0 0.011 0 0.018 0 70.692-57.308 128-128 128-0.75 0-1.499-0.006-2.246-0.019l0.112 0.002zM553.813 522.24c0-23.564-19.103-42.667-42.667-42.667s-42.667 19.103-42.667 42.667c0 23.564 19.103 42.667 42.667 42.667s42.667-19.103 42.667-42.667zM703.573 522.24c0-23.564-19.103-42.667-42.667-42.667s-42.667 19.103-42.667 42.667c0 23.564 19.103 42.667 42.667 42.667s42.667-19.103 42.667-42.667zM404.053 522.24c0-23.564-19.103-42.667-42.667-42.667s-42.667 19.103-42.667 42.667c0 23.564 19.103 42.667 42.667 42.667s42.667-19.103 42.667-42.667z" />
<glyph unicode="&#xe938;" glyph-name="it-copy" d="M789.333 746.667h-64v64.427c-0.242 35.162-28.802 63.573-63.999 63.573-0.001 0-0.001 0-0.002 0h-426.667c0 0-0.001 0-0.001 0-35.196 0-63.757-28.411-63.998-63.55v-597.356c-0.001-0.127-0.001-0.277-0.001-0.427 0-35.346 28.654-64 64-64 0 0 0.001 0 0.001 0h64v-64c0-35.346 28.654-64 64-64v0h426.667c35.346 0 64 28.654 64 64v0 597.333c0 35.346-28.654 64-64 64v0zM234.667 192c-11.687 0.234-21.099 9.647-21.333 21.311v597.355c0 11.782 9.551 21.333 21.333 21.333v0h426.667c11.782 0 21.333-9.551 21.333-21.333v0-597.333c-0.234-11.687-9.647-21.099-21.311-21.333h-426.689zM810.667 85.333c-0.234-11.687-9.647-21.099-21.311-21.333h-426.689c-11.687 0.234-21.099 9.647-21.333 21.311v64.022h320c35.346 0 64 28.654 64 64v0 490.667h64c11.687-0.234 21.099-9.647 21.333-21.311v-0.022z" />
<glyph unicode="&#xe939;" glyph-name="it-delete" d="M661.333 789.333v21.333c0 34.133-29.867 64-64 64h-170.667c-34.133 0-64-29.867-64-64v-21.333h-234.667v-42.667h85.333v-661.333c0-34.133 29.867-64 64-64h469.333c34.133 0 64 29.867 64 64v661.333h85.333v42.667h-234.667zM405.333 810.667c0 12.8 8.533 21.333 21.333 21.333h170.667c12.8 0 21.333-8.533 21.333-21.333v-21.333h-213.333v21.333zM768 85.333c0-12.8-8.533-21.333-21.333-21.333h-469.333c-12.8 0-21.333 8.533-21.333 21.333v661.333h512v-661.333zM490.667 618.667h42.667v-426.667h-42.667v426.667zM341.333 618.667h42.667v-426.667h-42.667v426.667zM640 618.667h42.667v-426.667h-42.667v426.667z" />
<glyph unicode="&#xe93a;" glyph-name="it-designers-italia" d="M369.606 77.854v556.122h155.245v-557.111h-155.245v0.99zM979.277 507.314h-141.88v-228.584c0-22.759 1.028-37.603 2.056-47.498 1.028-8.906 5.141-16.822 12.337-23.749s18.506-9.895 33.928-9.895l88.418 1.979 7.197-118.745c-51.406-10.885-91.502-16.822-118.233-16.822-69.912 0-117.205 14.843-141.88 45.519-25.703 29.686-38.040 85.1-38.040 166.243v513.572h155.245v-154.368h141.88v-127.651h-1.028zM136.225 464.764c-26.731 0-49.349 8.906-66.827 26.718s-26.731 39.582-26.731 65.31c0 25.728 9.253 47.498 25.703 65.31 17.478 17.812 40.096 25.728 66.827 25.728s49.349-8.906 66.827-26.718c17.478-17.812 25.703-39.582 25.703-66.299s-8.225-47.498-25.703-65.31c-16.45-15.833-38.040-24.739-65.799-24.739z" />
<glyph unicode="&#xe93b;" glyph-name="it-download" d="M876.373 298.667h-5.547c-11.782 0-21.333-9.551-21.333-21.333v0-128c-1.575-23.93-21.371-42.744-45.561-42.744-0.933 0-1.86 0.028-2.779 0.083l0.126-0.006h-576.427c-0.793-0.049-1.72-0.077-2.653-0.077-24.19 0-43.986 18.814-45.553 42.607l-0.007 0.137v128c0 11.782-9.551 21.333-21.333 21.333v0h-5.547c-0.127 0.003-0.277 0.004-0.427 0.004-11.782 0-21.333-9.551-21.333-21.333 0-0.002 0-0.003 0-0.005v0-128c3.15-47.86 42.741-85.488 91.121-85.488 1.866 0 3.72 0.056 5.559 0.166l-0.253-0.012h576.853c1.075-0.045 2.337-0.071 3.604-0.071 48.351 0 87.924 37.582 91.101 85.128l0.015 0.277v128c0 0.020 0 0.044 0 0.068 0 11.181-8.602 20.354-19.55 21.26l-0.077 0.005zM685.653 427.093c-5.789 5.782-13.784 9.359-22.613 9.359s-16.824-3.576-22.614-9.359v0l-96.427-96.427v469.333c0 17.673-14.327 32-32 32s-32-14.327-32-32v0-469.333l-96 96.427c-5.789 5.782-13.784 9.359-22.613 9.359s-16.824-3.576-22.614-9.359v0c-5.708-5.902-9.225-13.954-9.225-22.827s3.517-16.924 9.234-22.836l127.991-127.991c11.531-11.669 27.535-18.895 45.227-18.895s33.696 7.227 45.221 18.889l128.006 128.006c5.837 5.926 9.441 14.066 9.441 23.047 0 8.765-3.433 16.729-9.027 22.62l0.013-0.014z" />
<glyph unicode="&#xe93c;" glyph-name="it-edit" d="M614.827 841.813l-452.693-453.12c-7.010-7.471-11.365-17.506-11.52-28.556v-0.031l-2.987-194.56c-0.006-0.383-0.009-0.836-0.009-1.289 0-50.192 40.688-90.88 90.88-90.88 0.453 0 0.906 0.003 1.357 0.010l-0.068-0.001 194.987 2.56c11.135 0.279 21.167 4.781 28.599 11.959l-0.012-0.012 453.547 451.84c34.987 35.413-3.413 131.413-85.333 213.333s-181.333 121.6-216.747 88.747zM389.12 224l-90.453 89.6 392.533 390.4 89.173-89.6zM614.827 781.227l46.080-46.080-391.253-391.68-45.653 46.080 384 384zM239.787 115.627c-0.431-0.014-0.939-0.022-1.448-0.022-13.136 0-25.012 5.397-33.531 14.094l-0.008 0.008c-8.703 8.785-14.081 20.878-14.081 34.228 0 0.117 0 0.234 0.001 0.35v-0.018l2.987 193.28 42.667-44.8 29.867-29.867 91.733-90.88 74.667-74.667zM464.64 149.333v0l-45.653 42.667 391.68 393.813 45.653-46.080-8.107-8.107zM887.467 570.453v0l-46.507 45.227-195.413 195.413c13.653 5.973 78.933-11.52 154.027-85.333s93.44-143.787 87.893-155.307z" />
<glyph unicode="&#xe93d;" glyph-name="it-envelope" d="M810.667 704c1.355 0.077 2.941 0.121 4.536 0.121 31.468 0 58.957-17.033 73.752-42.382l0.218-0.405c4.264-7.636 6.789-16.745 6.827-26.442v-373.771c-4.906-39.312-38.115-69.429-78.359-69.429-2.455 0-4.884 0.112-7.283 0.331l0.308-0.023h-597.333c-2.090-0.197-4.519-0.309-6.974-0.309-40.244 0-73.453 30.117-78.32 69.042l-0.039 0.387v373.76c0.076 9.757 2.76 18.872 7.389 26.701l-0.136-0.248c15.016 25.743 42.499 42.766 73.958 42.766 1.45 0 2.891-0.036 4.323-0.108l-0.201 0.008h597.333zM810.667 746.667h-597.333c-1.337 0.050-2.908 0.079-4.485 0.079-47.333 0-88.666-25.692-110.813-63.891l-0.329-0.614c-7.783-13.634-12.372-29.961-12.373-47.36v0-373.76c4.688-62.826 56.814-112.024 120.431-112.024 2.663 0 5.306 0.086 7.926 0.256l-0.357-0.019h597.333c2.263-0.151 4.906-0.237 7.569-0.237 63.617 0 115.743 49.198 120.407 111.623l0.024 0.401v373.76c-0.138 16.868-4.384 32.714-11.785 46.626l0.265-0.546c-22.295 39.532-64.014 65.79-111.866 65.79-1.623 0-3.239-0.030-4.847-0.090l0.232 0.007zM810.667 704c0.030 0 0.066 0 0.102 0 24.281 0 46.194-10.142 61.734-26.42l0.032-0.033-298.667-298.667c-15.46-15.55-36.866-25.173-60.519-25.173-0.024 0-0.048 0-0.071 0h0.004c-0.212-0.002-0.462-0.003-0.712-0.003-23.317 0-44.383 9.641-59.427 25.155l-0.020 0.021-298.667 298.667c14.915 15.65 35.657 25.63 58.732 26.449l0.148 0.004h597.333zM810.667 746.667h-597.333c-50.887-0.139-94.778-29.951-115.295-73.039l-0.332-0.774 324.693-324.693c23.179-23.257 55.242-37.648 90.667-37.648s67.488 14.39 90.663 37.644l323.417 323.417c-20.621 44.638-64.994 75.063-116.476 75.093h-0.004zM653.653 432.213l-30.293-30.293 239.787-240.213 30.293 30.293-239.787 240.213zM375.040 436.48l-244.48-244.48 30.293-30.293 244.48 244.48-30.293 30.293z" />
<glyph unicode="&#xe93e;" glyph-name="it-error" d="M480 662.187h64v-298.667h-64v298.667zM555.093 276.907c0-23.8-19.294-43.093-43.093-43.093s-43.093 19.294-43.093 43.093c0 23.8 19.294 43.093 43.093 43.093s43.093-19.294 43.093-43.093zM653.227 789.333l200.107-200.107v-282.453l-200.107-200.107h-282.453l-200.107 200.107v282.453l200.107 200.107h282.453zM671.147 832h-318.293l-224.853-224.853v-318.293l224.853-224.853h318.293l224.853 224.853v318.293l-224.853 224.853z" />
<glyph unicode="&#xe93f;" glyph-name="it-exchange-circle" d="M512 874.667c-235.641 0-426.667-191.025-426.667-426.667s191.025-426.667 426.667-426.667c235.641 0 426.667 191.025 426.667 426.667v0c0 235.641-191.025 426.667-426.667 426.667v0zM512 64c-212.077 0-384 171.923-384 384s171.923 384 384 384c212.077 0 384-171.923 384-384v0c0-212.077-171.923-384-384-384v0zM729.6 443.733l34.133-34.133-183.467-183.467c-11.395-10.628-26.738-17.153-43.605-17.153-1.171 0-2.334 0.031-3.49 0.094l0.161-0.007c-0.994-0.055-2.158-0.087-3.328-0.087-16.867 0-32.21 6.525-43.643 17.188l0.038-0.035-102.4 106.667v-98.133h-42.667v170.667h170.667v-42.667h-98.133l102.4-106.667h34.133zM473.6 640l-179.2-187.733-34.133 34.133 183.467 183.467c11.395 10.628 26.738 17.153 43.605 17.153 1.171 0 2.334-0.031 3.49-0.094l-0.161 0.007c0.994 0.055 2.158 0.087 3.328 0.087 16.867 0 32.21-6.525 43.643-17.188l-0.038 0.035 102.4-106.667v98.133h42.667v-170.667h-170.667v42.667h98.133l-102.4 106.667h-34.133z" />
<glyph unicode="&#xe940;" glyph-name="it-expand" d="M512 373.333l-203.52 202.667c-5.789 5.782-13.784 9.359-22.613 9.359s-16.824-3.576-22.614-9.359v0c-5.887-5.741-9.539-13.751-9.539-22.613s3.652-16.872 9.532-22.607l0.007-0.006 203.52-203.947c11.625-11.463 27.599-18.543 45.227-18.543s33.602 7.079 45.234 18.55l-0.007-0.007 203.52 206.507c5.887 5.741 9.539 13.751 9.539 22.613s-3.652 16.872-9.532 22.607l-0.007 0.006c-5.789 5.782-13.784 9.359-22.613 9.359s-16.824-3.576-22.614-9.359v0z" />
<glyph unicode="&#xe941;" glyph-name="it-external-link" d="M810.667 512v277.333c23.564 0 42.667-19.103 42.667-42.667v0-234.667c0-11.782-9.551-21.333-21.333-21.333v0 0c-11.782 0-21.333 9.551-21.333 21.333v0zM576 789.333h234.667c23.564 0 42.667-19.103 42.667-42.667v0 0h-277.333c-11.782 0-21.333 9.551-21.333 21.333v0 0c0 11.782 9.551 21.333 21.333 21.333v0zM419.444 389.593l362.039 362.039c8.331 8.331 21.839 8.331 30.17 0s8.331-21.839 0-30.17l-362.039-362.039c-8.331-8.331-21.839-8.331-30.17 0s-8.331 21.839 0 30.17zM747.093 448c-11.782 0-21.333-9.551-21.333-21.333v0-234.667c0-47.128-38.205-85.333-85.333-85.333v0h-384.427c-47.128 0-85.333 38.205-85.333 85.333v0 384c0 47.128 38.205 85.333 85.333 85.333v0h213.333c11.782 0 21.333 9.551 21.333 21.333v0c-0.234 11.687-9.647 21.099-21.311 21.333h-213.355c-70.692 0-128-57.308-128-128v0-384c0-70.692 57.308-128 128-128v0h384c70.692 0 128 57.308 128 128v0 235.093c-0.234 11.451-9.456 20.673-20.885 20.906h-0.022z" />
<glyph unicode="&#xe942;" glyph-name="it-eye-close" d="M512 597.333c-82.475 0-149.333-66.859-149.333-149.333v0c0.099-17.793 3.376-34.791 9.291-50.496l-0.331 1.002 189.867 189.867c-14.703 5.584-31.7 8.861-49.451 8.96h-0.042zM652.373 497.493l-189.867-189.867c14.703-5.584 31.7-8.861 49.451-8.96h0.042c82.475 0 149.333 66.859 149.333 149.333v0c-0.099 17.793-3.376 34.791-9.291 50.496l0.331-1.002zM223.573 250.027l32.427 30.72c-52.623 45.107-94.67 100.961-122.98 164.3l-1.18 2.954c59.369 151.068 203.952 256.063 373.059 256.063 2.497 0 4.988-0.023 7.474-0.068l-0.373 0.005c1.229 0.013 2.682 0.020 4.137 0.020 49.546 0 97.12-8.445 141.36-23.974l-2.99 0.914 33.28 33.28c-50.548 20.538-109.186 32.456-170.607 32.456-1.821 0-3.64-0.010-5.456-0.031l0.277 0.003c-231.253 0-357.973-139.52-422.827-290.133-1.203-2.499-1.906-5.434-1.906-8.533s0.703-6.034 1.958-8.654l-0.052 0.121c31.138-74.928 76.795-138.244 133.879-188.985l0.521-0.455zM934.827 456.533c-31.138 74.928-76.795 138.244-133.879 188.985l-0.521 0.455-32.427-30.72c52.623-45.107 94.67-100.961 122.98-164.3l1.18-2.954c-53.333-118.613-162.133-256-380.16-256-1.229-0.013-2.682-0.020-4.137-0.020-49.546 0-97.12 8.445-141.36 23.974l2.99-0.914-33.28-33.28c50.548-20.538 109.186-32.456 170.607-32.456 1.821 0 3.64 0.010 5.456 0.031l-0.277-0.003c231.253 0 357.973 139.52 422.827 290.133 1.203 2.499 1.906 5.434 1.906 8.533s-0.703 6.034-1.958 8.654l0.052-0.121zM210.325 176.471l573.228 573.228c8.331 8.331 21.839 8.331 30.17 0s8.331-21.839 0-30.17l-573.228-573.228c-8.331-8.331-21.839-8.331-30.17 0s-8.331 21.839 0 30.17z" />
<glyph unicode="&#xe943;" glyph-name="it-eye-open" d="M512 704c218.027 0 326.827-137.387 380.16-256-53.333-118.613-162.133-256-380.16-256-2.287-0.047-4.982-0.074-7.683-0.074-168.956 0-313.38 105.032-371.541 253.364l-0.936 2.71c53.333 119.040 162.133 256 380.16 256zM512 746.667c-231.253 0-357.973-139.947-422.827-290.133-1.211-2.566-1.918-5.574-1.918-8.747s0.707-6.181 1.972-8.875l-0.054 0.128c64.853-149.76 191.573-289.707 422.827-289.707s357.973 139.52 422.827 289.707c1.211 2.566 1.918 5.574 1.918 8.747s-0.707 6.181-1.972 8.875l0.054-0.128c-64.853 150.613-191.573 290.133-422.827 290.133zM512 533.333c47.128 0 85.333-38.205 85.333-85.333s-38.205-85.333-85.333-85.333c-47.128 0-85.333 38.205-85.333 85.333v0c0 47.128 38.205 85.333 85.333 85.333v0zM512 597.333c-82.475 0-149.333-66.859-149.333-149.333s66.859-149.333 149.333-149.333c82.475 0 149.333 66.859 149.333 149.333v0c0 82.475-66.859 149.333-149.333 149.333v0z" />
<glyph unicode="&#xe944;" glyph-name="it-facebook" d="M578.133 21.333v388.693h130.987l19.627 151.893h-150.613v97.28c0 42.667 12.373 73.813 75.52 73.813h79.787v135.68c-33.931 3.808-73.265 5.98-113.107 5.98-1.336 0-2.672-0.002-4.007-0.007l0.207 0.001c-116.053 0-195.413-70.827-195.413-200.533v-111.787h-130.56v-152.32h130.56v-388.693z" />
<glyph unicode="&#xe945;" glyph-name="it-facebook-square" d="M853.333 832h-682.667c-23.564 0-42.667-19.103-42.667-42.667v0-682.667c0-23.564 19.103-42.667 42.667-42.667v0h368.213v296.533h-101.12v116.907h99.84v85.333c-0.448 4.204-0.704 9.081-0.704 14.018 0 77.29 62.656 139.947 139.947 139.947 3.551 0 7.071-0.132 10.555-0.392l-0.465 0.028c31.74-0.018 63.026-1.877 93.78-5.478l-3.754 0.358v-104.107h-61.44c-48.213 0-57.173-22.613-57.173-56.32v-74.24h115.2l-14.933-116.053h-100.267v-298.667h194.987c23.564 0 42.667 19.103 42.667 42.667v0 0 684.8c0 23.564-19.103 42.667-42.667 42.667v0z" />
<glyph unicode="&#xe946;" glyph-name="it-fast-backward" d="M614.245 443.661l202.667 203.52c5.782 5.789 9.359 13.784 9.359 22.613s-3.576 16.824-9.359 22.614v0c-5.741 5.887-13.751 9.539-22.613 9.539s-16.872-3.652-22.607-9.532l-0.006-0.007-202.667-203.52c-11.463-11.625-18.543-27.599-18.543-45.227s7.079-33.602 18.55-45.234l-0.007 0.007 205.227-203.52c5.741-5.887 13.751-9.539 22.613-9.539s16.872 3.652 22.607 9.532l0.006 0.007c5.782 5.789 9.359 13.784 9.359 22.613s-3.576 16.824-9.359 22.614v0zM383.538 452.339l202.667 203.52c5.782 5.789 9.359 13.784 9.359 22.613s-3.576 16.824-9.359 22.614v0c-5.741 5.887-13.751 9.539-22.613 9.539s-16.872-3.652-22.607-9.532l-0.006-0.007-202.667-203.52c-11.463-11.625-18.543-27.599-18.543-45.227s7.079-33.602 18.55-45.234l-0.007 0.007 205.227-203.52c5.741-5.887 13.751-9.539 22.613-9.539s16.872 3.652 22.607 9.532l0.006 0.007c5.782 5.789 9.359 13.784 9.359 22.613s-3.576 16.824-9.359 22.614v0zM174.921 228.339v448c0 17.673 14.327 32 32 32s32-14.327 32-32v-448c0-17.673-14.327-32-32-32s-32 14.327-32 32z" />
<glyph unicode="&#xe947;" glyph-name="it-fast-forward" d="M389.507 452.339l-202.667-203.52c-5.782-5.789-9.359-13.784-9.359-22.613s3.576-16.824 9.359-22.614v0c5.741-5.887 13.751-9.539 22.613-9.539s16.872 3.652 22.607 9.532l0.006 0.007 202.667 203.52c11.463 11.625 18.543 27.599 18.543 45.227s-7.079 33.602-18.55 45.234l0.007-0.007-205.227 203.52c-5.741 5.887-13.751 9.539-22.613 9.539s-16.872-3.652-22.607-9.532l-0.006-0.007c-5.782-5.789-9.359-13.784-9.359-22.613s3.576-16.824 9.359-22.614v0zM620.214 443.661l-202.667-203.52c-5.782-5.789-9.359-13.784-9.359-22.613s3.576-16.824 9.359-22.614v0c5.741-5.887 13.751-9.539 22.613-9.539s16.872 3.652 22.607 9.532l0.006 0.007 202.667 203.52c11.463 11.625 18.543 27.599 18.543 45.227s-7.079 33.602-18.55 45.234l0.007-0.007-205.227 203.52c-5.741 5.887-13.751 9.539-22.613 9.539s-16.872-3.652-22.607-9.532l-0.006-0.007c-5.782-5.789-9.359-13.784-9.359-22.613s3.576-16.824 9.359-22.614v0zM828.83 667.661v-448c0-17.673-14.327-32-32-32s-32 14.327-32 32v448c0 17.673 14.327 32 32 32s32-14.327 32-32z" />
<glyph unicode="&#xe948;" glyph-name="it-file" d="M810.667 729.173l-145.493 145.493h-430.507c-35.346 0-64-28.654-64-64v0-725.333c0-35.346 28.654-64 64-64v0h554.667c35.346 0 64 28.654 64 64v0 601.173zM794.88 686.507h-107.947c-11.782 0-21.333 9.551-21.333 21.333v0 106.24zM789.333 64h-554.667c-11.782 0-21.333 9.551-21.333 21.333v0 725.333c0 11.782 9.551 21.333 21.333 21.333v0h388.267v-128c0-35.346 28.654-64 64-64v0h123.733v-554.667c0-11.782-9.551-21.333-21.333-21.333v0zM319.147 404.907h384.853c11.782 0 21.333-9.551 21.333-21.333v-0.427c0-11.782-9.551-21.333-21.333-21.333h-384.853c-11.782 0-21.333 9.551-21.333 21.333v0.427c0 11.782 9.551 21.333 21.333 21.333zM319.147 277.76h384.853c11.782 0 21.333-9.551 21.333-21.333v-0.427c0-11.782-9.551-21.333-21.333-21.333h-384.853c-11.782 0-21.333 9.551-21.333 21.333v0.427c0 11.782 9.551 21.333 21.333 21.333z" />
<glyph unicode="&#xe949;" glyph-name="it-files" d="M427.52 491.52h298.24c11.782 0 21.333-9.551 21.333-21.333s-9.551-21.333-21.333-21.333h-298.24c-11.782 0-21.333 9.551-21.333 21.333s9.551 21.333 21.333 21.333zM427.947 383.573h298.24c11.782 0 21.333-9.551 21.333-21.333s-9.551-21.333-21.333-21.333h-298.24c-11.782 0-21.333 9.551-21.333 21.333s9.551 21.333 21.333 21.333zM810.667 721.92l-153.173 152.747h-294.827c0 0-0.001 0-0.001 0-35.196 0-63.757-28.411-63.998-63.55v-64.45h-64c-0.128 0.001-0.28 0.001-0.432 0.001-35.111 0-63.573-28.463-63.573-63.573 0-0.301 0.002-0.601 0.006-0.9v0.045-597.333c0.242-35.162 28.802-63.573 63.999-63.573 0.001 0 0.001 0 0.002 0h426.667c35.346 0 64 28.654 64 64v0 64h64c0.127-0.001 0.278-0.001 0.428-0.001 35.111 0 63.573 28.463 63.573 63.573 0 0.151-0.001 0.301-0.002 0.451v-0.023 465.92zM810.667 661.333h-106.24c-11.881 0.472-21.333 10.217-21.333 22.17 0 0.006 0 0.012 0 0.017v-0.001 105.813zM682.667 84.907c-0.234-11.687-9.647-21.099-21.311-21.333h-426.689c-11.687 0.234-21.099 9.647-21.333 21.311v597.355c-0.003 0.127-0.004 0.277-0.004 0.427 0 11.782 9.551 21.333 21.333 21.333 0.002 0 0.003 0 0.005 0h64v-490.24c-0.004-0.254-0.006-0.554-0.006-0.855 0-35.111 28.463-63.573 63.573-63.573 0.152 0 0.304 0.001 0.456 0.002h319.977zM810.667 212.907c0-11.782-9.551-21.333-21.333-21.333v0h-426.667c-11.782 0-21.333 9.551-21.333 21.333v0 597.333c-0.003 0.127-0.004 0.277-0.004 0.427 0 11.782 9.551 21.333 21.333 21.333 0.002 0 0.003 0 0.005 0h277.333v-147.2c-0.008-0.381-0.013-0.831-0.013-1.281 0-35.672 28.8-64.617 64.417-64.852h106.262z" />
<glyph unicode="&#xe94a;" glyph-name="it-flag" d="M729.6 618.667l140.8 213.333h-657.067v42.667h-42.667v-853.333h42.667v384h657.067l-140.8 213.333zM213.333 789.333h580.267l-115.2-170.667 115.2-170.667h-580.267v341.333z" />
<glyph unicode="&#xe94b;" glyph-name="it-flickr" d="M488.96 448c0-111.458-90.355-201.813-201.813-201.813s-201.813 90.355-201.813 201.813c0 111.458 90.355 201.813 201.813 201.813s201.813-90.355 201.813-201.813zM938.667 448c0-111.458-90.355-201.813-201.813-201.813s-201.813 90.355-201.813 201.813c0 111.458 90.355 201.813 201.813 201.813s201.813-90.355 201.813-201.813z" />
<glyph unicode="&#xe94c;" glyph-name="it-flickr-square" d="M853.333 789.333c-25.345 26.323-60.888 42.673-100.25 42.673-0.456 0-0.911-0.002-1.366-0.007l0.069 0.001h-479.573c-0.385 0.004-0.841 0.006-1.297 0.006-39.362 0-74.904-16.35-100.208-42.629l-0.042-0.044c-26.321-25.345-42.669-60.887-42.669-100.247 0-0.307 0.001-0.614 0.003-0.921v0.047-480c-0.004-0.385-0.006-0.841-0.006-1.297 0-39.362 16.35-74.904 42.629-100.208l0.044-0.042c25.346-26.326 60.89-42.677 100.254-42.677 0.604 0 1.208 0.004 1.811 0.012l-0.092-0.001h479.573c79.463 0.243 143.787 64.716 143.787 144.213 0 0 0 0 0 0.001v0 480c0.002 0.259 0.003 0.566 0.003 0.873 0 39.36-16.349 74.902-42.626 100.205l-0.044 0.042zM445.44 372.48c-19.247-18.98-45.695-30.701-74.88-30.701s-55.633 11.721-74.892 30.713l0.012-0.012c-19.208 19.223-31.087 45.771-31.087 75.093s11.879 55.871 31.088 75.094l-0.001-0.001c19.247 18.98 45.695 30.701 74.88 30.701s55.633-11.721 74.892-30.713l-0.012 0.012c19.208-19.223 31.087-45.771 31.087-75.093s-11.879-55.871-31.088-75.094l0.001 0.001zM727.467 372.48c-19.134-18.705-45.34-30.245-74.241-30.245-58.508 0-105.969 47.295-106.239 105.74v0.026c0.274 58.467 47.734 105.758 106.239 105.758 29.112 0 55.489-11.709 74.678-30.675l-0.010 0.010c19.208-19.223 31.087-45.771 31.087-75.093s-11.879-55.871-31.088-75.094l0.001 0.001z" />
<glyph unicode="&#xe94d;" glyph-name="it-folder" d="M396.373 746.667h-185.6c-69.279 0-125.44-56.161-125.44-125.44v0-389.12c0-69.279 56.161-125.44 125.44-125.44v0h602.453c69.279 0 125.44 56.161 125.44 125.44v0 261.12c0 69.279-56.161 125.44-125.44 125.44v0h-343.893c-0.054-0.001-0.118-0.002-0.181-0.002-3.873 0-7.112 2.716-7.915 6.348l-0.010 0.054-26.027 92.587c-5.687 16.522-20.793 28.313-38.746 29.011l-0.081 0.002zM128 470.613v150.613c1.377 45.15 37.624 81.396 82.644 82.77l0.129 0.003h173.227c0.021 0 0.046 0 0.071 0 5.381 0 9.931-3.558 11.426-8.449l0.022-0.085 32-110.080c1.383-5.436 6.234-9.392 12.009-9.392 0.128 0 0.256 0.002 0.383 0.006h371.608c45.88-0.452 83.067-37.042 84.477-82.643l0.003-0.13v-22.613zM210.773 149.333c-45.15 1.377-81.396 37.624-82.77 82.644l-0.003 0.129v193.28h768v-193.28c-1.377-45.15-37.624-81.396-82.644-82.77l-0.129-0.003z" />
<glyph unicode="&#xe94e;" glyph-name="it-fullscreen" d="M170.667 106.667h192v-42.667h-234.667v234.667h42.667zM128 597.333h42.667v192h192v42.667h-234.667zM853.333 106.667h-192v-42.667h234.667v234.667h-42.667zM661.333 832v-42.667h192v-192h42.667v234.667z" />
<glyph unicode="&#xe94f;" glyph-name="it-funnel" d="M597.333 21.333h-42.667v369.067l300.8 441.6h-684.8l298.667-441.6v-369.067h-42.667v356.267l-339.2 497.067h851.2l-341.333-497.067z" />
<glyph unicode="&#xe950;" glyph-name="it-github" d="M512 874.667c-0.092 0-0.201 0-0.309 0-235.641 0-426.667-191.025-426.667-426.667 0-187.525 120.978-346.794 289.145-404.019l3.004-0.888c21.333-3.84 29.013 9.387 29.013 20.48s0 37.12 0 72.533c-119.040-25.6-144.213 55.893-144.213 55.893-8.301 27.035-25.53 49.246-48.179 63.724l-0.461 0.276c-38.827 26.453 2.987 26.027 2.987 26.027 27.763-3.886 51.16-19.831 65.056-42.277l0.224-0.389c15.906-28.193 45.661-46.918 79.791-46.918 16.29 0 31.584 4.266 44.825 11.742l-0.456-0.237c2.079 22.5 11.96 42.367 26.874 57.168l0.006 0.006c-91.307 8.96-192.853 45.653-192.853 209.067-0.025 1.081-0.040 2.355-0.040 3.632 0 42.816 16.213 81.846 42.834 111.285l-0.128-0.143c-5.562 15.173-8.779 32.693-8.779 50.964 0 22.326 4.803 43.53 13.433 62.636l-0.388-0.959s35.84 11.52 117.333-42.667c31.992 8.945 68.729 14.087 106.667 14.087s74.675-5.142 109.553-14.767l-2.886 0.679c81.493 55.040 117.333 42.667 117.333 42.667 8.242-18.146 13.045-39.35 13.045-61.676 0-18.271-3.217-35.79-9.115-52.023l0.336 1.060c26.494-29.295 42.706-68.325 42.706-111.141 0-1.277-0.014-2.551-0.043-3.821l0.003 0.189c0-163.84-99.84-199.68-194.987-210.347 18.105-18.393 29.283-43.65 29.283-71.517 0-2.61-0.098-5.197-0.291-7.757l0.021 0.341c0-57.173 0-103.253 0-117.333s7.68-24.747 29.44-20.48c171.175 58.111 292.156 217.382 292.156 404.909 0 235.152-190.233 425.874-425.2 426.664h-0.076z" />
<glyph unicode="&#xe951;" glyph-name="it-hearing" d="M632.747 49.067c-1.673-0.077-3.635-0.12-5.607-0.12-72.106 0-130.56 58.454-130.56 130.56 0 1.393 0.022 2.78 0.065 4.162l-0.005-0.202c-2.56 46.080-76.373 113.92-106.24 140.373-60.16 53.76-124.16 119.040-124.16 215.893 0.485 137.954 112.43 249.6 250.452 249.6 0 0 0.001 0 0.001 0v0c139.352-2.636 251.307-116.222 251.307-255.957 0-0.015 0-0.030 0-0.045v0.002h-42.667c0 0.015 0 0.033 0 0.052 0 116.17-92.856 210.653-208.396 213.277l-0.244 0.004c-114.275-0.241-206.876-92.693-207.36-206.887v-0.046c0-78.933 54.187-133.973 109.653-183.467s117.333-113.92 120.747-170.667c-0.117-1.699-0.183-3.682-0.183-5.681 0-48.778 39.542-88.32 88.32-88.32 1.715 0 3.419 0.049 5.11 0.145l-0.234-0.011c51.345 0.342 92.837 42.045 92.837 93.438 0 2.403-0.091 4.785-0.269 7.142l0.019-0.314h42.667c0.043-1.284 0.067-2.792 0.067-4.307 0-75.407-60.19-136.755-135.147-138.623l-0.173-0.003zM598.187 554.667c0-47.128-38.205-85.333-85.333-85.333s-85.333 38.205-85.333 85.333c0 47.128 38.205 85.333 85.333 85.333s85.333-38.205 85.333-85.333zM226.56 343.893c-48.343 47.1-79.974 111.147-85.277 182.524l-0.056 0.943c-0.361 5.66-0.567 12.272-0.567 18.933 0 116.377 62.879 218.069 156.517 272.953l1.491 0.807 21.333-36.693c-82.34-48.48-136.725-136.678-136.725-237.577 0-6.482 0.224-12.912 0.666-19.282l-0.048 0.859c5.423-60.871 31.947-114.691 72.108-154.882l-0.002 0.002z" />
<glyph unicode="&#xe952;" glyph-name="it-help" d="M501.76 149.333c-0.571 0.027-1.241 0.043-1.915 0.043-11.953 0-22.758-4.915-30.505-12.835l-0.008-0.008c-7.401-7.663-11.961-18.111-11.961-29.624 0-0.385 0.005-0.77 0.015-1.152l-0.001 0.057c-0.006-0.26-0.009-0.566-0.009-0.873 0-11.179 4.574-21.289 11.951-28.563l0.005-0.005c7.671-7.444 18.15-12.034 29.7-12.034 0.959 0 1.911 0.032 2.855 0.094l-0.128-0.007c0.815-0.056 1.767-0.087 2.727-0.087 11.55 0 22.028 4.589 29.71 12.044l-0.011-0.010c7.631 6.9 12.405 16.836 12.405 27.887 0 0.546-0.012 1.090-0.035 1.63l0.003-0.077c0.003 0.199 0.005 0.434 0.005 0.669 0 11.723-4.728 22.342-12.381 30.054l0.003-0.003c-7.754 7.928-18.559 12.843-30.512 12.843-0.673 0-1.343-0.016-2.009-0.046l0.094 0.003zM705.707 719.36c-9.93 24.062-24.417 44.436-42.529 60.89l-0.137 0.123c-17.769 16.937-39.105 30.308-62.749 38.858l-1.251 0.395c-24.61 8.663-52.986 13.669-82.532 13.669-0.985 0-1.969-0.006-2.951-0.017l0.15 0.001c-0.862 0.011-1.881 0.017-2.901 0.017-28.447 0-55.762-4.85-81.162-13.769l1.716 0.525c-25.628-8.76-47.76-21.538-66.847-37.785l0.287 0.238c-17.729-16.241-32.11-35.812-42.205-57.761l-0.461-1.119c-10.844-22.475-17.398-48.811-17.917-76.621l-0.003-0.179c-0.136-1.092-0.213-2.357-0.213-3.639 0-17.202 13.945-31.147 31.147-31.147s31.147 13.945 31.147 31.147c0 1.282-0.078 2.547-0.228 3.789l0.015-0.149c0.086 20.77 4.796 40.42 13.154 58l-0.354-0.827c7.927 16.865 18.868 31.083 32.255 42.523l0.172 0.144c13.313 10.891 28.912 19.606 45.898 25.299l1.036 0.301c16.969 5.414 36.487 8.534 56.734 8.534 0.154 0 0.309 0 0.463-0.001h-0.024c1.12 0.028 2.44 0.043 3.763 0.043 20.083 0 39.322-3.613 57.103-10.226l-1.133 0.369c16.684-6.403 30.912-15.832 42.655-27.721l0.012-0.012c12.183-11.736 21.884-25.957 28.298-41.856l0.289-0.811c6.22-16.527 9.821-35.629 9.821-55.572 0-0.563-0.003-1.125-0.009-1.687l0.001 0.086c0.007-0.554 0.011-1.208 0.011-1.863 0-18.902-3.287-37.037-9.319-53.863l0.349 1.114c-6.322-17.907-14.399-33.422-24.308-47.558l0.415 0.625c-10.746-15.958-21.829-29.887-33.904-42.881l0.197 0.215c-12.8-13.653-26.027-26.453-39.253-39.253-14.034-12.478-26.857-25.436-38.816-39.167l-0.438-0.513c-9.755-11.216-18.164-23.993-24.739-37.812l-0.435-1.015c-5.935-12.309-10.669-26.609-13.484-41.586l-0.169-1.081c-2.076-14.3-3.261-30.812-3.261-47.6 0-4.867 0.1-9.711 0.297-14.53l-0.022 0.69h62.293c-0.012 0.992-0.018 2.164-0.018 3.338 0 13.867 0.937 27.516 2.751 40.886l-0.173-1.557c1.966 13.432 5.244 25.506 9.774 36.949l-0.387-1.109c4.976 12.061 10.844 22.456 17.796 32.011l-0.303-0.437c8.427 11.512 17.684 21.581 27.941 30.533l0.219 0.187c16.64 14.080 32.853 29.44 48.64 45.227 15.499 15.548 29.539 32.569 41.886 50.828l0.781 1.225c11.26 16.942 21.059 36.39 28.425 56.994l0.588 1.886c7.040 19.299 11.111 41.577 11.111 64.807 0 0.916-0.006 1.831-0.019 2.745l0.002-0.138c0.002 0.31 0.003 0.676 0.003 1.043 0 27.613-5.488 53.945-15.432 77.964l0.496-1.353z" />
<glyph unicode="&#xe953;" glyph-name="it-help-circle" d="M512 832c212.077 0 384-171.923 384-384s-171.923-384-384-384c-212.077 0-384 171.923-384 384v0c0 212.077 171.923 384 384 384v0zM512 874.667c-235.641 0-426.667-191.025-426.667-426.667s191.025-426.667 426.667-426.667c235.641 0 426.667 191.025 426.667 426.667v0c0 235.641-191.025 426.667-426.667 426.667v0zM507.307 311.467c-1.549 0.226-3.337 0.356-5.156 0.356-20.736 0-37.547-16.81-37.547-37.547 0-0.575 0.013-1.148 0.039-1.716l-0.003 0.081c-0.005-0.22-0.007-0.479-0.007-0.739 0-10.316 4.068-19.681 10.686-26.581l-0.013 0.013c7.022-6.669 16.537-10.771 27.010-10.771 1.005 0 2.001 0.038 2.988 0.112l-0.131-0.008c0.602-0.030 1.308-0.048 2.018-0.048 10.867 0 20.786 4.063 28.319 10.753l-0.044-0.038c6.608 6.635 10.694 15.787 10.694 25.893 0 0.497-0.010 0.992-0.029 1.485l0.002-0.071c0.019 0.444 0.030 0.965 0.030 1.488 0 10.218-4.081 19.482-10.703 26.252l0.007-0.007c-7.418 6.763-17.287 10.951-28.131 11.093h-0.029zM632.747 598.187c-6.001 13.73-14.685 25.286-25.466 34.449l-0.134 0.111c-12.020 9.589-26.29 16.939-41.851 21.146l-0.815 0.188c-15.683 4.604-33.699 7.253-52.334 7.253-0.051 0-0.102 0-0.154 0h0.008c-0.643 0.008-1.403 0.013-2.164 0.013-17.464 0-34.344-2.498-50.303-7.156l1.266 0.317c-16.324-4.466-30.567-11.651-42.966-21.126l0.299 0.219c-11.478-9.351-20.808-20.863-27.459-33.965l-0.274-0.595c-6.464-13.412-10.24-29.163-10.24-45.795 0-0.1 0-0.2 0-0.3v0.016c0.476-18.009 15.189-32.427 33.269-32.427 0.004 0 0.008 0 0.012 0h-0.001c0.007 0 0.016 0 0.024 0 18.166 0 32.975 14.37 33.68 32.363l0.002 0.064c0.905 8.659 3.804 16.493 8.228 23.238l-0.122-0.198c3.527 6.361 8.262 11.641 13.937 15.69l0.143 0.097c5.592 4.112 12.136 7.334 19.207 9.288l0.42 0.099c6.887 1.803 14.814 2.887 22.978 2.986l0.062 0.001c1.356 0.1 2.937 0.157 4.531 0.157 15.449 0 29.644-5.366 40.824-14.337l-0.128 0.099c9.868-9.686 15.985-23.165 15.985-38.073 0-1.617-0.072-3.218-0.213-4.798l0.015 0.204c0-0.063 0-0.138 0-0.213 0-8.728-1.886-17.016-5.272-24.479l0.151 0.372c-3.968-8.627-8.527-16.056-13.843-22.866l0.19 0.253c-5.655-7.923-11.538-14.889-17.934-21.347l-19.613-19.613c-7.952-6.863-15.19-13.831-22.036-21.17l-0.151-0.164c-4.894-5.714-8.927-12.351-11.783-19.582l-0.164-0.471c-2.616-7.136-4.437-15.406-5.1-23.999l-0.020-0.321c0-8.96 0-20.48 0-34.133h64.427c0 7.68 0 14.507 0 19.627-0.002 0.146-0.003 0.318-0.003 0.491 0 5.478 0.939 10.737 2.664 15.625l-0.101-0.329c1.498 5.378 3.839 10.072 6.907 14.194l-0.081-0.114c4.006 5.72 8.211 10.737 12.807 15.367l-0.007-0.007q14.080 12.373 28.16 25.6c9.011 8.799 17.269 18.275 24.726 28.379l0.447 0.634c7.201 9.593 13.376 20.572 18.015 32.326l0.332 0.954c2.926 8.987 4.614 19.329 4.614 30.065 0 2.934-0.126 5.838-0.373 8.708l0.026-0.373c0.090 1.741 0.141 3.779 0.141 5.83 0 14.909-2.711 29.184-7.668 42.36l0.274-0.829z" />
<glyph unicode="&#xe954;" glyph-name="it-horn" d="M839.68 789.333c-10.955-0.066-21.038-3.744-29.133-9.901l0.12 0.087-155.307-111.787-7.68-6.4h-349.013c-2.484 0.129-5.394 0.203-8.32 0.203-94.369 0-170.869-76.501-170.869-170.869 0-91.442 71.83-166.107 162.143-170.65l0.406-0.016v-192c0 0 0-0.001 0-0.001 0-35.346 28.654-64 64-64 0.15 0 0.3 0.001 0.45 0.002h42.644c35.346 0 64 28.654 64 64v0 192h195.413l5.973-4.267 156.16-111.787c7.975-6.070 18.059-9.747 28.998-9.813h0.015c32.311 5.157 56.707 32.826 56.707 66.193 0 2.534-0.141 5.035-0.415 7.496l0.027-0.303v448c0.276 2.285 0.434 4.93 0.434 7.613 0 33.384-24.421 61.064-56.373 66.15l-0.381 0.050zM410.453 128c0-11.782-9.551-21.333-21.333-21.333v0h-42.667c-11.782 0-21.333 9.551-21.333 21.333v0 192h85.333zM640 604.16v-241.493h-344.32c-70.052 0.843-126.515 57.828-126.515 128 0 70.697 57.311 128.009 128.009 128.009 0.525 0 1.049-0.003 1.573-0.009l-0.080 0.001h250.453v-256h42.667v256h48.213zM853.333 490.667v-224c0-20.48-11.52-30.72-16.213-30.72-0.641-0.164-1.376-0.258-2.133-0.258s-1.493 0.094-2.195 0.271l0.062-0.013-150.187 112.64v286.293l152.747 111.787s2.987 0 4.267 0c2.65-0.36 4.912-1.781 6.381-3.812l0.019-0.028c5.872-6.422 9.469-15.009 9.469-24.437 0-0.86-0.030-1.712-0.089-2.557l0.006 0.114z" />
<glyph unicode="&#xe955;" glyph-name="it-inbox" d="M170.667 874.667v-597.333h157.867l42.667-85.333h281.6l42.667 85.333h157.867v597.333h-682.667zM810.667 320h-140.8l-42.667-85.333h-230.4l-42.667 85.333h-140.8v512h597.333v-512zM810.667 234.667h42.667v-213.333h-682.667v213.333h42.667v-170.667h597.333zM298.667 746.667h426.667v-42.667h-426.667v42.667zM298.667 618.667h426.667v-42.667h-426.667v42.667zM298.667 490.667h426.667v-42.667h-426.667v42.667z" />
<glyph unicode="&#xe956;" glyph-name="it-info-circle" d="M512 832c212.077 0 384-171.923 384-384s-171.923-384-384-384c-212.077 0-384 171.923-384 384v0c0 212.077 171.923 384 384 384v0zM512 874.667c-235.641 0-426.667-191.025-426.667-426.667s191.025-426.667 426.667-426.667c235.641 0 426.667 191.025 426.667 426.667v0c0 235.641-191.025 426.667-426.667 426.667v0zM389.12 540.16h157.867v-241.92h87.893v-54.187h-245.76v54.187h91.733v187.307h-91.733zM474.453 616.96c-0.013 0.358-0.021 0.779-0.021 1.201 0 9.344 3.755 17.812 9.838 23.976l-0.004-0.004c7.409 6.367 17.119 10.243 27.733 10.243s20.324-3.876 27.79-10.29l-0.057 0.048c6.313-6.58 10.2-15.529 10.2-25.387s-3.887-18.807-10.212-25.399l0.012 0.013c-7.409-6.367-17.119-10.243-27.733-10.243s-20.324 3.876-27.79 10.29l0.057-0.048c-5.46 6.085-8.798 14.172-8.798 23.037 0 1.505 0.096 2.987 0.283 4.442l-0.018-0.172z" />
</font>
</defs>
</svg>
