<?xml version="1.0" standalone="no"?>
<!DOCTYPE svg PUBLIC "-//W3C//DTD SVG 1.1//EN" "http://www.w3.org/Graphics/SVG/1.1/DTD/svg11.dtd">
<svg xmlns="http://www.w3.org/2000/svg">
<defs >
<font id="TitilliumWeb" horiz-adv-x="482" ><font-face
    font-family="Titillium Web"
    units-per-em="1000"
    panose-1="0 0 8 0 0 0 0 0 0 0"
    ascent="1133"
    descent="-388"
    alphabetic="0" />
<glyph unicode=" " glyph-name="space" horiz-adv-x="220" />
<glyph unicode="!" glyph-name="exclam" horiz-adv-x="163" d="M77 258L172 700H315L203 258H77ZM14 0L49 153H185L150 0H14Z" />
<glyph unicode="&quot;" glyph-name="quotedbl" horiz-adv-x="306" d="M224 437H109L167 688H292L224 437ZM392 437H277L335 688H460L392 437Z" />
<glyph unicode="#" glyph-name="numbersign" horiz-adv-x="560" d="M579 165H483L442 0H326L367 165H263L222 0H106L147 165H51L79 277H175L201 383H105L133 495H229L270 660H386L345 495H449L490 660H606L565 495H661L633 383H537L511 277H607L579 165ZM395 277L421
383H317L291 277H395Z" />
<glyph unicode="$" glyph-name="dollar" horiz-adv-x="560" d="M540 217Q540 107 472 48T290 -12Q274 -12 248 -10L199 -119H114L169 3L88 28L110 125Q162 115 216 109L298 292Q234 322 208 358T181 456Q181 550 242 611T405 673Q427 673 467 669L513 771H599L547
654L609 636L584 541Q545 547 501 552L423 380Q493 348 516 314T540 217ZM404 201Q404 221 397 232T368 257L299 105Q351 107 377 129T404 201ZM317 472Q317 451 324 440T353 414L418 559H409Q366 559 342 535T317 472Z" />
<glyph unicode="%" glyph-name="percent" horiz-adv-x="560" d="M274 621T267 607T250 559T241 508T254 490T276 505T292 553T301 604T288 621ZM108 6L532 720L611 690L187 -24L108 6ZM143 496Q143 522 151 556Q187 701 307 701Q399 701 399 615Q399 589 391 556Q355
410 235 410Q143 410 143 496ZM487 291Q579 291 579 205Q579 179 571 146Q535 0 415 0Q323 0 323 86Q323 112 331 146Q367 291 487 291ZM454 211T446 197T429 148T420 97T433 80T455 95T472 143T481 194T468 211Z" />
<glyph unicode="&amp;" glyph-name="ampersand" horiz-adv-x="641" d="M430 692Q606 692 606 541Q606 470 570 429T430 347L506 245Q518 263 534 302T555 366H678Q667 321 635 257T574 159L654 66L561 -14L489 78Q396 -12 275 -12T109 35T63 166T111 305T259 402Q229
454 229 509Q229 602 284 647T430 692ZM297 102Q329 102 366 119T425 158L307 325Q202 276 202 179Q202 102 297 102ZM428 580Q363 580 363 494Q363 450 383 419Q438 448 455 470T472 529Q472 580 428 580Z" />
<glyph unicode="&apos;" glyph-name="quotesingle" horiz-adv-x="138" d="M224 437H109L167 688H292L224 437Z" />
<glyph unicode="(" glyph-name="parenleft" horiz-adv-x="234" d="M240 402T216 307T192 141Q192 7 204 -90L208 -123H80Q51 -26 51 132Q51 221 75 317T134 486Q208 643 262 716L287 748H412Q383 705 341 624T269 472Z" />
<glyph unicode=")" glyph-name="parenright" horiz-adv-x="235" d="M140 228T164 323T188 489Q188 623 176 720L172 753H300Q329 656 329 498Q329 409 305 313T246 144Q172 -13 118 -86L93 -118H-32Q-3 -75 39 6T111 158Z" />
<glyph unicode="*" glyph-name="asterisk" horiz-adv-x="423" d="M511 499H388L426 379L353 357L312 478L209 399L162 458L267 536L165 609L211 672L312 599L351 720L426 695L388 573H511V499Z" />
<glyph unicode="+" glyph-name="plus" horiz-adv-x="560" d="M107 191V311H276V479H396V311H567V191H396V21H276V191H107Z" />
<glyph unicode="," glyph-name="comma" horiz-adv-x="175" d="M58 -130H-53L64 153H211L58 -130Z" />
<glyph unicode="-" glyph-name="hyphen" horiz-adv-x="267" d="M53 205L83 325H336L306 205H53Z" />
<glyph unicode="." glyph-name="period" horiz-adv-x="152" d="M8 0L43 153H179L144 0H8Z" />
<glyph unicode="/" glyph-name="slash" horiz-adv-x="468" d="M163 -24L37 20L468 718L594 674L163 -24Z" />
<glyph unicode="0" glyph-name="zero" horiz-adv-x="560" d="M401 672Q617 672 617 460T531 118T311 -12Q95 -12 95 200T181 542T401 672ZM476 500T460 527T397 554T312 498T255 367T236 225T252 133T315 106T399 162T457 293T476 434Z" />
<glyph unicode="1" glyph-name="one" horiz-adv-x="560" d="M194 516L449 660H568L416 0H279L394 498L231 408L194 516Z" />
<glyph unicode="2" glyph-name="two" horiz-adv-x="560" d="M385 368T423 410T461 488T441 539T376 554Q310 554 230 542L205 539L223 639Q319 672 412 672T554 635T602 517T562 380T432 256L250 118H517L488 0H63L90 112L289 285Q385 368 423 410Z" />
<glyph unicode="3" glyph-name="three" horiz-adv-x="560" d="M212 631Q301 672 402 672T552 638T600 533T574 421T480 347Q516 326 529 301T543 223Q543 118 465 53T259 -12Q215 -12 165 -3T87 15L59 24L88 118Q202 106 264 106T364 135T402 217Q402 246 384
258T316 272L190 274L215 376L344 382Q383 384 421 417T459 492Q459 554 369 554Q293 554 224 544L198 541L212 631Z" />
<glyph unicode="4" glyph-name="four" horiz-adv-x="560" d="M322 -5L349 112H70L93 212L369 660H519L240 226H375L416 404H552L511 226H572L545 112H485L458 -5H322Z" />
<glyph unicode="5" glyph-name="five" horiz-adv-x="560" d="M386 418Q560 418 560 258Q560 140 485 64T297 -12Q245 -12 186 -2T94 20L62 31L93 135Q209 106 275 106T380 142T419 222T401 283T351 300Q294 300 252 284L237 279L137 302L248 661H641L614 543H330L271
387Q342 418 386 418Z" />
<glyph unicode="6" glyph-name="six" horiz-adv-x="560" d="M440 554Q325 554 267 390Q347 425 402 425Q583 425 583 251Q583 132 513 60T312 -12Q212 -12 156 46T99 223Q99 299 124 377T195 521T313 630T472 672Q538 672 614 656L640 650L597 539Q519 554 440
554ZM361 307Q305 307 263 289L249 283Q240 245 240 209T259 140T321 106Q380 106 411 139T442 238Q442 307 361 307Z" />
<glyph unicode="7" glyph-name="seven" horiz-adv-x="560" d="M197 542L224 660H636L596 487L242 -18L117 18L464 501L472 542H197Z" />
<glyph unicode="8" glyph-name="eight" horiz-adv-x="560" d="M441 673Q535 673 586 635T638 540Q638 466 610 423T523 340Q575 301 575 217Q575 116 486 51T278 -14T113 28T65 154Q65 253 195 340Q174 361 164 381T154 409T153 439Q153 533 231 603T441 673ZM214
139T233 122T303 104T392 137T430 211Q430 236 421 250T387 275H299Q263 262 239 237T214 176ZM490 517T471 536T408 555T329 524T294 455Q294 431 300 419T327 389H415Q445 406 467 434T490 489Z" />
<glyph unicode="9" glyph-name="nine" horiz-adv-x="560" d="M121 129Q179 114 251 114T375 155T444 265L418 259Q329 239 296 239Q210 239 168 281T125 416Q125 506 194 584Q228 623 286 647T418 672Q513 672 559 606T605 420Q605 218 495 103T227 -12Q161 -12
100 4L79 10L121 129ZM478 436Q478 547 388 547Q336 547 298 514T259 435T277 375T329 361Q393 361 451 372L472 376Q478 409 478 436Z" />
<glyph unicode=":" glyph-name="colon" horiz-adv-x="158" d="M80 296L115 449H251L216 296H80ZM10 0L45 153H181L146 0H10Z" />
<glyph unicode=";" glyph-name="semicolon" horiz-adv-x="175" d="M-54 -130L63 153H210L57 -130H-54ZM95 296L130 449H266L231 296H95Z" />
<glyph unicode="&lt;" glyph-name="less" horiz-adv-x="560" d="M520 353L259 254L520 146V10L114 196V306L520 489V353Z" />
<glyph unicode="=" glyph-name="equal" horiz-adv-x="560" d="M116 295V416H560V295H116ZM116 87V208H560V87H116Z" />
<glyph unicode="&gt;" glyph-name="greater" horiz-adv-x="560" d="M416 254L155 353V489L561 306V196L155 10V146L416 254Z" />
<glyph unicode="?" glyph-name="question" horiz-adv-x="431" d="M522 536Q522 468 490 425T371 321Q317 284 309 248L300 208H174Q174 257 182 302T276 408Q335 449 357 472T380 524T363 562T310 572Q244 572 184 563L164 560L178 665Q268 692 338 692Q522 692
522 536ZM120 0L158 168H294L256 0H120Z" />
<glyph unicode="@" glyph-name="at" horiz-adv-x="959" d="M635 727Q737 727 813 704Q954 663 998 548Q1020 493 1020 431T1000 295Q957 130 900 60T753 -10T634 34Q601 18 544 3T442 -12T364 12T319 73Q303 121 303 165T312 242Q366 512 564 512Q612 512 808
479Q742 191 737 150Q733 117 777 117Q806 117 829 159T872 282Q897 379 897 417T887 492T847 556Q780 615 614 615T351 527T215 271Q202 215 202 172T209 90T239 18T295 -42Q366 -95 497 -95L634 -86L608 -197Q511 -207 466 -207Q373 -207 299 -181T180 -109T106
-2Q77 61 77 131T91 271Q149 514 281 620T635 727ZM483 102Q540 102 602 140Q606 180 654 384Q590 398 563 398Q482 398 447 242Q438 205 438 182Q438 103 480 102Q481 102 483 102Z" />
<glyph unicode="A" glyph-name="A" horiz-adv-x="551" d="M13 0L319 680H557L536 0H398L402 118H204L151 0H13ZM400 560L256 238H407L421 560H400Z" />
<glyph unicode="B" glyph-name="B" horiz-adv-x="573" d="M458 680Q636 680 636 533Q636 468 608 426T524 350Q563 327 576 300T589 232Q589 132 520 66T321 0H65L222 680H458ZM382 285H269L230 118H348Q393 118 420 149T447 229Q447 285 382 285ZM436 562H333L295
400H398Q439 400 467 429T495 505Q495 562 436 562Z" />
<glyph unicode="C" glyph-name="C" horiz-adv-x="494" d="M304 -12Q99 -12 99 185Q99 331 148 454Q175 522 214 574T313 659T449 692Q522 692 596 670L620 662L588 560Q526 572 444 572Q382 572 335 517T264 377T241 195Q241 108 322 108Q399 108 461 118L484
121L473 14Q380 -12 304 -12Z" />
<glyph unicode="D" glyph-name="D" horiz-adv-x="605" d="M309 0H65L222 680H436Q660 680 660 473Q660 327 606 209Q545 77 439 28Q380 0 309 0ZM496 307T507 364T518 471T491 540T408 560H332L231 120H321Q372 120 412 157T474 250Z" />
<glyph unicode="E" glyph-name="E" horiz-adv-x="497" d="M65 0L221 680H620L592 560H332L295 400H501L473 280H268L231 120H492L465 0H65Z" />
<glyph unicode="F" glyph-name="F" horiz-adv-x="477" d="M65 0L222 680H614L586 560H332L285 355H495L466 235H257L203 0H65Z" />
<glyph unicode="G" glyph-name="G" horiz-adv-x="568" d="M327 -12Q102 -12 102 202Q102 364 158 484Q219 616 332 666Q392 692 453 692T566 682T646 662L673 652L641 552Q542 572 454 572Q400 572 358 537T292 444Q244 329 244 201Q244 108 344 108L407 113L442
264H378L405 378H606L521 14Q453 -12 327 -12Z" />
<glyph unicode="H" glyph-name="H" horiz-adv-x="620" d="M417 0L483 288H269L203 0H65L222 680H360L297 408H511L574 680H712L555 0H417Z" />
<glyph unicode="I" glyph-name="I" horiz-adv-x="268" d="M65 0L222 680H360L203 0H65Z" />
<glyph unicode="J" glyph-name="J" horiz-adv-x="283" d="M378 680L252 135Q229 34 198 -15Q182 -40 155 -50Q104 -69 6 -69L29 51Q71 53 86 66T114 135L240 680H378Z" />
<glyph unicode="K" glyph-name="K" horiz-adv-x="540" d="M384 0L340 273L264 266L203 0H65L222 680H360L292 386L356 394L532 680H683L466 339L529 0H384Z" />
<glyph unicode="L" glyph-name="L" horiz-adv-x="422" d="M419 0H65L222 680H360L231 120H446L419 0Z" />
<glyph unicode="M" glyph-name="M" horiz-adv-x="789" d="M65 0L222 680H436L437 185L663 680H881L724 0H586L716 560H710L467 30H337L336 560H331L203 0H65Z" />
<glyph unicode="N" glyph-name="N" horiz-adv-x="651" d="M65 0L222 680H441L477 147H489L610 680H743L586 0H378L334 543H322L195 0H65Z" />
<glyph unicode="O" glyph-name="O" horiz-adv-x="615" d="M243 155T264 132T337 108T423 142Q470 189 498 284T527 470Q527 525 506 548T433 572T351 542Q301 493 272 394T243 225ZM669 347T628 229T509 49T322 -12Q101 -12 101 196Q101 327 141 443T258 625T448
692Q669 692 669 484Q669 347 628 229Z" />
<glyph unicode="P" glyph-name="P" horiz-adv-x="547" d="M333 196H248L203 0H65L222 680H418Q529 680 578 635T628 488Q628 345 550 271T333 196ZM351 316Q414 316 450 360T486 486Q486 524 468 542T408 560H332L276 316H351Z" />
<glyph unicode="Q" glyph-name="Q" horiz-adv-x="615" d="M315 -12Q213 -12 157 39T101 196Q101 327 141 443T258 625T448 692Q669 692 669 484Q669 347 628 229T505 46Q483 30 471 24L519 -111L388 -154L345 -10Q325 -12 315 -12ZM243 155T264 132T337 108T423
142Q470 189 498 284T527 470Q527 525 506 548T433 572T351 542Q301 493 272 394T243 225Z" />
<glyph unicode="R" glyph-name="R" horiz-adv-x="559" d="M418 680Q526 680 577 635T628 491T585 327T476 235L531 0H393L348 216H253L203 0H65L222 680H418ZM423 334T454 377T486 472T469 543T410 562H333L280 334H369Q423 334 454 377Z" />
<glyph unicode="S" glyph-name="S" horiz-adv-x="495" d="M381 574Q337 574 312 550T286 491T302 442T390 394T488 327T515 223Q515 110 446 49T258 -12Q211 -12 159 -2T78 18L50 29L73 128Q186 108 250 108T345 130T375 207Q375 236 358 251T272 298T175 366T146
469Q146 566 209 629T377 692Q425 692 477 683T558 664L586 654L561 556Q451 574 381 574Z" />
<glyph unicode="T" glyph-name="T" horiz-adv-x="456" d="M138 560L166 680H604L576 560H425L296 0H158L287 560H138Z" />
<glyph unicode="U" glyph-name="U" horiz-adv-x="595" d="M249 231Q240 193 240 163T260 120T332 108T410 135T451 231L555 680H693L589 231Q560 103 495 46T321 -12Q103 -12 103 142Q103 194 116 253L215 680H353L249 231Z" />
<glyph unicode="V" glyph-name="V" horiz-adv-x="555" d="M561 680H699L391 0H156L170 680H308L284 120H317L561 680Z" />
<glyph unicode="W" glyph-name="W" horiz-adv-x="865" d="M174 680H312L270 127H284L510 670H662L629 127H643L867 680H1005L714 0H514L547 494L349 0H143L174 680Z" />
<glyph unicode="X" glyph-name="X" horiz-adv-x="520" d="M313 680L362 441L526 680H671L421 342L515 0H370L315 243L146 0H1L257 343L167 680H313Z" />
<glyph unicode="Y" glyph-name="Y" horiz-adv-x="504" d="M661 680L381 288L313 0H185L253 294L158 680H298L346 415L515 680H661Z" />
<glyph unicode="Z" glyph-name="Z" horiz-adv-x="490" d="M165 560L193 680H611L579 541L226 144L220 120H482L454 0H36L67 137L418 536L423 560H165Z" />
<glyph unicode="[" glyph-name="bracketleft" horiz-adv-x="246" d="M187 747H416L388 633H300L151 -8H239L211 -122H-15L187 747Z" />
<glyph unicode="\" glyph-name="backslash" horiz-adv-x="484" d="M458 0H319L186 702H326L458 0Z" />
<glyph unicode="]" glyph-name="bracketright" horiz-adv-x="245" d="M203 -122H-26L2 -8H90L239 633H151L179 747H405L203 -122Z" />
<glyph unicode="^" glyph-name="asciicircum" horiz-adv-x="560" d="M417 313L308 530L195 313H55L249 660H363L557 313H417Z" />
<glyph unicode="_" glyph-name="underscore" horiz-adv-x="478" d="M-4 -80H444L416 -205H-32L-4 -80Z" />
<glyph unicode="`" glyph-name="grave" horiz-adv-x="518" d="M308 772L529 682L473 583L244 662L308 772Z" />
<glyph unicode="a" glyph-name="a" horiz-adv-x="528" d="M221 -12Q148 -12 114 37T80 170Q80 285 138 391Q167 444 218 478T334 512Q403 512 538 488L584 479L509 156L482 3L349 -2Q358 59 362 76Q321 21 266 -2Q243 -12 221 -12ZM338 398Q300 398 271 359Q216
285 216 170Q216 135 227 119T261 102T314 124T364 168L384 191L430 384Q364 398 338 398Z" />
<glyph unicode="b" glyph-name="b" horiz-adv-x="527" d="M412 512Q493 512 527 466T562 349Q562 192 492 91T302 -11Q254 -11 193 -3T95 14L58 22L214 700H348L293 461Q316 481 350 496T412 512ZM213 113Q257 103 294 103T358 128T398 191Q425 268 425 333T372
398Q352 398 326 386T284 360L267 348L213 113Z" />
<glyph unicode="c" glyph-name="c" horiz-adv-x="409" d="M343 512Q403 512 470 488L492 481L458 383Q381 396 337 396Q280 396 249 334T218 188T294 104L401 112L390 13Q317 -12 244 -12T127 34T82 162Q82 315 149 413T343 512Z" />
<glyph unicode="d" glyph-name="d" horiz-adv-x="528" d="M224 -12Q153 -12 117 34T80 165T107 327T194 457T332 511Q366 511 432 495L452 490L501 700H635L473 0H343L352 52Q332 29 294 9T224 -12ZM428 383Q370 397 334 397T270 358T229 266T216 166Q216 102
267 102Q283 102 311 120T360 156L380 174L428 383Z" />
<glyph unicode="e" glyph-name="e" horiz-adv-x="476" d="M215 132T235 117T287 102Q356 102 428 112L454 115L439 16Q346 -12 255 -12T123 29T81 149T97 290T144 402T230 481T355 511Q530 511 530 362Q530 267 466 231T253 195H218Q215 183 215 158ZM274 294Q343
294 370 309T398 360Q398 403 348 403Q259 403 233 294H274Z" />
<glyph unicode="f" glyph-name="f" horiz-adv-x="328" d="M378 712Q417 712 460 694L473 689L449 591Q414 598 388 598T351 579T330 519L325 500H430L402 386H300L210 0L147 -211H26L166 384H120L148 500H191L196 520Q220 625 258 668T378 712Z" />
<glyph unicode="g" glyph-name="g" horiz-adv-x="484" d="M226 -230Q9 -230 9 -93Q9 -46 42 -16T131 42Q111 62 111 88T126 139T156 177L171 191Q103 231 103 316T160 456T310 512Q353 512 412 498L431 494L577 500L552 392H494Q498 370 498 341Q498 264 439 211T289
157L246 162Q231 142 231 128T250 108T325 94Q467 73 467 -32Q467 -121 403 -175T226 -230ZM168 -5T150 -24T131 -65T153 -102T223 -118Q341 -118 341 -48Q341 -35 332 -27T310 -16T247 -5T188 6Q168 -5 150 -24ZM296 266Q331 266 353 289T375 347Q375 403 305
403Q270 403 248 380T226 322Q226 266 296 266Z" />
<glyph unicode="h" glyph-name="h" horiz-adv-x="513" d="M419 512Q541 512 541 371Q541 335 520 245L464 0H330L384 235Q402 310 402 339T395 382T368 396Q334 396 283 351L266 336L189 0H55L216 700H350L294 453Q316 475 353 493T419 512Z" />
<glyph unicode="i" glyph-name="i" horiz-adv-x="243" d="M55 0L170 500H304L189 0H55ZM181 552L213 689H348L317 552H181Z" />
<glyph unicode="j" glyph-name="j" horiz-adv-x="243" d="M55 0L170 500H304L189 0Q180 -40 175 -60T157 -103T134 -138T98 -166Q64 -190 -28 -230L-70 -123Q7 -83 25 -65T55 0ZM179 543L211 680H346L315 543H179Z" />
<glyph unicode="k" glyph-name="k" horiz-adv-x="467" d="M189 0H55L216 700H350L260 311L294 318L421 499H568L394 259L460 0H323L275 207L235 201L189 0Z" />
<glyph unicode="l" glyph-name="l" horiz-adv-x="244" d="M55 0L216 700H350L189 0H55Z" />
<glyph unicode="m" glyph-name="m" horiz-adv-x="776" d="M383 235Q401 310 401 339T393 382T365 396Q332 396 282 351L266 336L189 0H55L170 500H298L293 452Q331 490 382 506Q403 512 432 512T487 494T520 458L527 441Q536 449 551 461T607 492T683 512Q803
512 803 371Q803 326 784 245L728 0H594L650 235Q668 310 668 338T660 381T634 396T591 382T550 352L534 338Q527 278 519 245L463 0H329L383 235Z" />
<glyph unicode="n" glyph-name="n" horiz-adv-x="513" d="M419 512Q541 512 541 371Q541 335 520 245L464 0H330L384 235Q402 310 402 339T395 382T367 396Q332 396 282 351L266 336L189 0H55L170 500H298L292 451Q315 474 352 493T419 512Z" />
<glyph unicode="o" glyph-name="o" horiz-adv-x="496" d="M333 511Q530 511 530 322Q530 241 503 167T417 41T277 -12Q80 -12 80 177Q80 257 109 332T197 459T333 511ZM277 102Q331 102 364 170T397 324Q397 397 333 397Q279 397 246 329T213 175Q213 102 277 102Z" />
<glyph unicode="p" glyph-name="p" horiz-adv-x="527" d="M418 512Q491 512 527 466T563 337T536 176T449 43T311 -11Q266 -11 210 4L190 10L139 -210H7L170 500H301L291 448Q316 473 352 492T418 512ZM376 398Q360 398 332 380T283 344L263 326L215 117Q273 103
309 103T373 142T414 234T427 334Q427 398 376 398Z" />
<glyph unicode="q" glyph-name="q" horiz-adv-x="526" d="M224 -12Q154 -12 117 34T80 165T108 328T196 459T332 511Q402 511 539 486L583 478L425 -210H291L352 53Q346 46 335 35T290 6T224 -12ZM331 397Q282 397 249 323T216 166Q216 102 267 102Q283 102 311
120T360 156L380 174L428 383Q369 397 331 397Z" />
<glyph unicode="r" glyph-name="r" horiz-adv-x="334" d="M55 0L170 500H303L285 428Q315 455 362 481T442 512L403 372Q355 357 286 326L262 315L189 0H55Z" />
<glyph unicode="s" glyph-name="s" horiz-adv-x="432" d="M302 397Q272 397 256 383T240 351T254 323T326 296T414 255T444 178Q444 84 383 36T219 -12Q176 -12 133 -4T68 14L46 22L71 120Q167 102 237 102T307 151Q307 164 293 171T245 189Q174 209 140 236T106
313Q106 406 167 458T314 511Q361 511 406 504T472 488L494 480L470 381Q367 397 302 397Z" />
<glyph unicode="t" glyph-name="t" horiz-adv-x="329" d="M238 130Q238 102 267 102L335 107L324 11Q271 -12 215 -12T129 18T99 92T114 198L158 386H104L134 500H185L214 628H348L319 500H424L396 386H292L246 186Q238 152 238 130Z" />
<glyph unicode="u" glyph-name="u" horiz-adv-x="513" d="M209 -12Q87 -12 87 129Q87 168 108 255L164 500H298L244 265Q226 190 226 161T234 118T262 104Q296 104 346 149L362 164L439 500H573L458 0H330L336 49Q313 26 276 7T209 -12Z" />
<glyph unicode="v" glyph-name="v" horiz-adv-x="463" d="M126 500H257L243 111H261L432 500H567L332 0H122L126 500Z" />
<glyph unicode="w" glyph-name="w" horiz-adv-x="762" d="M135 500H270L238 114H261L420 490H572L552 114H575L724 500H859L655 0H432L451 311L325 0H106L135 500Z" />
<glyph unicode="x" glyph-name="x" horiz-adv-x="430" d="M124 500H260L299 347L403 500H539L342 240L422 0H286L247 147L145 0H6L202 250L124 500Z" />
<glyph unicode="y" glyph-name="y" horiz-adv-x="464" d="M126 500H257L243 111H258L432 500H567L235 -210H102L205 0H122L126 500Z" />
<glyph unicode="z" glyph-name="z" horiz-adv-x="414" d="M122 386L151 500H496L468 389L216 114H408L379 0H34L59 112L310 386H122Z" />
<glyph unicode="{" glyph-name="braceleft" horiz-adv-x="288" d="M204 313Q265 279 265 227Q265 200 243 124T220 30Q220 -18 278 -18L247 -133Q174 -133 131 -100T88 -8Q88 13 109 91T130 190Q130 240 63 275L87 370Q148 386 167 403T196 457L225 603Q250 687
303 721T458 759L436 644Q395 640 375 622T347 572L323 446Q309 389 283 360T204 313Z" />
<glyph unicode="|" glyph-name="bar" horiz-adv-x="335" d="M157 -210V700H291V-210H157Z" />
<glyph unicode="}" glyph-name="braceright" horiz-adv-x="287" d="M227 310Q166 344 166 396Q166 423 188 499T211 593Q211 641 153 641L184 756Q257 756 300 723T343 631Q343 610 322 532T301 433Q301 383 368 348L344 253Q283 237 264 220T235 166L206 20Q181
-64 128 -98T-27 -136L-5 -21Q36 -17 56 1T84 51L108 177Q122 234 148 263T227 310Z" />
<glyph unicode="~" glyph-name="asciitilde" horiz-adv-x="560" d="M470 170T442 170T335 192T237 214T191 204T146 184L130 175L120 282Q183 334 243 334Q271 334 347 312T443 290Q480 290 531 318L548 328L556 221Q537 202 504 186Z" />
<glyph unicode="&#xa0;" glyph-name="uni00A0" horiz-adv-x="220" />
<glyph unicode="&#xa1;" glyph-name="exclamdown" horiz-adv-x="161" d="M201 242L106 -200H-37L75 242H201ZM264 500L229 347H93L128 500H264Z" />
<glyph unicode="&#xa2;" glyph-name="cent" horiz-adv-x="560" d="M170 74T159 105T147 158T146 199T155 250Q181 353 239 408T379 468L402 570H510L484 465L554 455L520 343Q449 346 402 346T326 325T283 250Q278 228 278 209T288 176Q306 153 370 153L478 157L457
45Q420 39 382 36L357 -74H251L274 29Q230 32 200 53Z" />
<glyph unicode="&#xa3;" glyph-name="sterling" horiz-adv-x="560" d="M593 553Q530 561 493 561T441 539T413 463L408 443H565L538 329H382L332 114H424L492 132L489 17L415 0H75L101 114H196L245 329H165L192 443H271L280 479Q308 589 351 634T481 679Q522 679
600 660L624 654L593 553Z" />
<glyph unicode="&#xa4;" glyph-name="currency" horiz-adv-x="560" d="M381 54T339 54T254 75L181 2L89 94L162 167Q142 209 142 251T162 337L89 410L181 502L254 429Q296 449 338 449T424 429L497 502L589 410L516 337Q536 294 536 252T516 167L589 94L497 2L424
75Q381 54 339 54ZM308 177T339 177T392 199T414 252T392 305T339 327T286 305T264 252T286 199Z" />
<glyph unicode="&#xa5;" glyph-name="yen" horiz-adv-x="560" d="M139 276L165 394H235L127 660H276L374 429L552 660H730L516 394H587L559 276H427L418 265L412 243H552L525 125H385L356 0H219L249 125H103L131 243H276L281 265L278 276H139Z" />
<glyph unicode="&#xa6;" glyph-name="brokenbar" horiz-adv-x="335" d="M157 700H291V328H157V700ZM157 170H291V-210H157V170Z" />
<glyph unicode="&#xa7;" glyph-name="section" horiz-adv-x="487" d="M538 502Q434 518 387 518T311 502T283 455Q283 436 293 429T310 418T329 410T350 404Q365 399 396 393Q512 365 512 266Q512 237 496 203T465 151T425 103Q442 76 442 50T438 -2T418 -62T376
-123T301 -169T204 -188Q128 -188 44 -172L16 -166L54 -55Q153 -69 202 -69T281 -53T311 -9Q311 14 294 25Q287 30 249 41T195 57Q132 77 105 106T78 182Q78 275 174 346Q154 364 154 428Q154 495 216 562Q245 595 296 616T392 637Q468 637 543 619L568 613L538
502ZM239 289T227 262T215 224T215 210T217 205T220 201Q228 193 236 190T246 186T253 183T264 179T297 166T337 151Q348 162 360 190T373 235T359 263T301 285T249 301Q239 289 227 262Z" />
<glyph unicode="&#xa8;" glyph-name="dieresis" horiz-adv-x="514" d="M215 601L246 736H357L325 601H215ZM409 601L440 736H551L519 601H409Z" />
<glyph unicode="&#xa9;" glyph-name="copyright" horiz-adv-x="641" d="M302 150T224 232T145 435T223 637T422 718T620 636T696 432T620 231T423 150ZM207 527T207 434T268 276T420 210T573 275T634 433T573 592T421 658T269 593ZM513 287Q485 269 423 269T331
305T301 434T331 563T433 598Q472 598 504 586L513 583L506 497Q471 503 445 503T412 489T404 439Q404 364 439 364L506 369L513 287Z" />
<glyph unicode="&#xaa;" glyph-name="ordfeminine" horiz-adv-x="329" d="M278 346Q228 314 179 314T109 344Q96 362 96 384Q96 463 146 498Q180 522 248 525L312 528L318 550Q320 565 279 565L146 558L160 633Q237 659 311 659T417 634Q439 618 439 582Q439 565
434 544L402 403Q408 397 418 395L397 313Q329 313 308 320T278 346ZM213 422Q213 402 239 402Q256 402 288 418L296 458L252 455Q213 452 213 422Z" />
<glyph unicode="&#xab;" glyph-name="guillemotleft" d="M576 436L539 305L426 240L506 163L473 43L303 212L326 273L576 436ZM326 436L289 305L176 240L256 163L223 43L53 212L76 273L326 436Z" />
<glyph unicode="&#xac;" glyph-name="logicalnot" horiz-adv-x="560" d="M113 358H549V104H429V238H113V358Z" />
<glyph unicode="&#xae;" glyph-name="registered" horiz-adv-x="641" d="M302 150T224 231T145 435T223 637T422 718T619 636T696 432T621 231T424 150ZM207 526T207 434T269 276T421 210T573 275T634 433T573 592T421 658T269 592ZM396 369V276H300V591H436Q488
591 519 566T550 494T542 426T512 386L553 276H453L425 369H396ZM395 519V440H423Q457 440 457 479T422 519H395Z" />
<glyph unicode="&#xaf;" glyph-name="overscore" horiz-adv-x="462" d="M217 627L242 736H551L525 627H217Z" />
<glyph unicode="&#xb0;" glyph-name="degree" horiz-adv-x="560" d="M255 475T255 542T296 650T405 692T513 651T555 542T514 434T405 393T297 434ZM330 576T330 542T350 487T405 466T460 487T482 542T461 597T405 619T351 598Z" />
<glyph unicode="&#xb1;" glyph-name="plusminus" horiz-adv-x="560" d="M99 270V390H268V498H388V390H559V270H388V170H268V270H99ZM99 139H559V19H99V139Z" />
<glyph unicode="&#xb2;" glyph-name="twosuperior" horiz-adv-x="280" d="M213 792Q288 801 341 801T414 778Q425 765 425 745T418 696Q404 642 338 601L293 573H387L364 478H133L155 568L243 627Q297 663 303 684Q305 693 298 696T270 699L192 693L213 792Z" />
<glyph unicode="&#xb3;" glyph-name="threesuperior" horiz-adv-x="280" d="M321 801Q423 801 423 738Q423 726 420 712Q408 660 374 642Q395 632 395 602Q395 588 390 569Q365 467 247 467L128 475L157 568Q217 562 248 562T283 578Q285 587 280 589T260 592H194L215
677H279Q299 677 302 688T299 702T280 706L194 701L211 792Q281 801 321 801Z" />
<glyph unicode="&#xb4;" glyph-name="acute" horiz-adv-x="559" d="M254 576L244 683L508 774L518 654L254 576Z" />
<glyph unicode="&#xb5;" glyph-name="mu" horiz-adv-x="560" d="M261 224Q252 181 252 157T260 118T288 104Q322 104 372 149L388 164L465 500H599L484 0H356L362 49Q339 26 302 7T242 -12T207 -9L161 -210H27L128 232L131 242Q131 245 133 251L190 500H324L275
290H276L261 224Z" />
<glyph unicode="&#xb6;" glyph-name="paragraph" horiz-adv-x="565" d="M140 460Q140 554 204 627T367 700H680L655 594H621L479 0H372L513 594H456L314 0H206L279 306Q205 307 173 350T140 460Z" />
<glyph unicode="&#xb7;" glyph-name="middot" horiz-adv-x="151" d="M56 207L94 376H229L191 207H56Z" />
<glyph unicode="&#xb8;" glyph-name="cedilla" horiz-adv-x="791" d="M416 -33Q509 -33 509 -94Q509 -107 505 -124Q480 -229 376 -229Q336 -229 304 -221L292 -218L312 -137Q342 -138 358 -138Q394 -138 400 -114Q403 -102 396 -98T369 -94H347L369 5H421L410 -33H416Z" />
<glyph unicode="&#xb9;" glyph-name="onesuperior" horiz-adv-x="280" d="M189 715L313 790H409L332 478H226L274 673L219 641L189 715Z" />
<glyph unicode="&#xba;" glyph-name="ordmasculine" horiz-adv-x="343" d="M321 660Q369 660 409 643T457 591Q461 572 461 549T454 494Q430 394 381 354T239 314Q174 314 141 346T108 428Q108 460 117 495Q139 584 188 622T321 660ZM224 428T232 419T266 410T309
427T335 478T344 528Q344 568 301 568Q273 568 258 553T233 503T224 448Z" />
<glyph unicode="&#xbb;" glyph-name="guillemotright" horiz-adv-x="474" d="M259 43L296 174L409 239L329 316L362 436L532 267L509 206L259 43ZM19 43L56 174L169 239L89 316L122 436L292 267L269 206L19 43Z" />
<glyph unicode="&#xbc;" glyph-name="onequarter" horiz-adv-x="634" d="M158 715L282 790H378L301 478H195L243 673L188 641L158 715ZM228 -24L102 20L533 718L659 674L228 -24ZM516 0L524 35H389L411 123L500 312H618L521 130H548L585 220H676L653 130H664L640
35H629L621 0H516Z" />
<glyph unicode="&#xbd;" glyph-name="onehalf" horiz-adv-x="647" d="M158 715L282 790H378L301 478H195L243 673L188 641L158 715ZM228 -24L102 20L533 718L659 674L228 -24ZM491 314Q566 323 619 323T692 300Q703 287 703 267T696 218Q682 164 616 123L571 95H665L642
0H411L433 90L521 149Q575 185 581 206Q583 215 576 218T548 221L470 215L491 314Z" />
<glyph unicode="&#xbe;" glyph-name="threequarters" horiz-adv-x="631" d="M301 801Q403 801 403 738Q403 726 400 712Q388 660 354 642Q375 632 375 602Q375 588 370 569Q345 467 227 467L108 475L137 568Q197 562 228 562T263 578Q265 587 260 589T240 592H174L195
677H259Q279 677 282 688T279 702T260 706L174 701L191 792Q261 801 301 801ZM225 -24L99 20L530 718L656 674L225 -24ZM513 0L521 35H386L408 123L497 312H615L518 130H545L582 220H673L650 130H661L637 35H626L618 0H513Z" />
<glyph unicode="&#xbf;" glyph-name="questiondown" horiz-adv-x="432" d="M26 -36Q26 32 58 75T177 179Q231 216 239 252L248 292H374Q374 243 366 198T272 92Q213 51 191 28T168 -24T185 -62T238 -72Q304 -72 364 -63L384 -60L370 -165Q280 -192 210 -192Q26
-192 26 -36ZM428 500L390 332H254L292 500H428Z" />
<glyph unicode="&#xc0;" glyph-name="Agrave" horiz-adv-x="551" d="M383 950L605 859L544 754L317 831L383 950ZM13 0L319 680H557L536 0H398L402 118H204L151 0H13ZM400 560L256 238H407L421 560H400Z" />
<glyph unicode="&#xc1;" glyph-name="Aacute" horiz-adv-x="551" d="M354 765L344 871L608 962L618 842L354 765ZM13 0L319 680H557L536 0H398L402 118H204L151 0H13ZM400 560L256 238H407L421 560H400Z" />
<glyph unicode="&#xc2;" glyph-name="Acircumflex" horiz-adv-x="551" d="M273 779L449 931H529L625 779H503L477 834L415 779H273ZM13 0L319 680H557L536 0H398L402 118H204L151 0H13ZM400 560L256 238H407L421 560H400Z" />
<glyph unicode="&#xc3;" glyph-name="Atilde" horiz-adv-x="551" d="M541 779T517 779T439 800T372 822Q349 822 300 792L285 783L281 876Q311 902 343 921T403 940T483 919T546 898Q567 898 615 926L631 936L633 842Q609 818 575 799ZM13 0L319 680H557L536 0H398L402
118H204L151 0H13ZM400 560L256 238H407L421 560H400Z" />
<glyph unicode="&#xc4;" glyph-name="Adieresis" horiz-adv-x="551" d="M308 788L339 923H450L418 788H308ZM507 788L538 923H649L616 788H507ZM13 0L319 680H557L536 0H398L402 118H204L151 0H13ZM400 560L256 238H407L421 560H400Z" />
<glyph unicode="&#xc5;" glyph-name="Aring" horiz-adv-x="551" d="M313 666Q312 674 312 686T316 717Q330 775 373 804T474 834T562 805Q583 785 583 752Q583 705 556 667L536 0H398L402 118H204L151 0H13L313 666ZM400 560L256 238H407L421 560H400ZM402 717Q401
714 401 708T410 694T439 686Q484 686 491 717Q492 721 492 728T481 742T454 748Q410 748 402 717Z" />
<glyph unicode="&#xc6;" glyph-name="AE" horiz-adv-x="754" d="M313 0L341 119H198L145 0H14L322 690H881L851 559L575 561L537 402H757L728 277H507L472 130H748L719 0H313ZM393 560L256 247H372L445 560H393Z" />
<glyph unicode="&#xc7;" glyph-name="Ccedilla" horiz-adv-x="494" d="M294 -33Q387 -33 387 -94Q387 -107 383 -124Q358 -229 254 -229Q214 -229 182 -221L170 -218L190 -137Q220 -138 236 -138Q272 -138 278 -114Q281 -102 274 -98T247 -94H225L244 -7Q99 20
99 185Q99 331 148 454Q175 522 214 574T313 659T449 692Q522 692 596 670L620 662L588 560Q526 572 444 572Q382 572 335 517T264 377T241 195Q241 108 322 108Q399 108 461 118L484 121L473 14Q380 -12 304 -12H294L288 -33H294Z" />
<glyph unicode="&#xc8;" glyph-name="Egrave" horiz-adv-x="497" d="M336 950L558 859L497 754L270 831L336 950ZM65 0L221 680H620L592 560H332L295 400H501L473 280H268L231 120H492L465 0H65Z" />
<glyph unicode="&#xc9;" glyph-name="Eacute" horiz-adv-x="497" d="M349 765L339 871L603 962L613 842L349 765ZM65 0L221 680H620L592 560H332L295 400H501L473 280H268L231 120H492L465 0H65Z" />
<glyph unicode="&#xca;" glyph-name="Ecircumflex" horiz-adv-x="497" d="M260 782L436 934H516L612 782H490L464 837L402 782H260ZM65 0L221 680H620L592 560H332L295 400H501L473 280H268L231 120H492L465 0H65Z" />
<glyph unicode="&#xcb;" glyph-name="Edieresis" horiz-adv-x="497" d="M287 788L318 923H429L397 788H287ZM486 788L517 923H628L595 788H486ZM65 0L221 680H620L592 560H332L295 400H501L473 280H268L231 120H492L465 0H65Z" />
<glyph unicode="&#xcc;" glyph-name="Igrave" horiz-adv-x="268" d="M210 950L432 859L371 754L144 831L210 950ZM65 0L222 680H360L203 0H65Z" />
<glyph unicode="&#xcd;" glyph-name="Iacute" horiz-adv-x="268" d="M229 765L219 871L483 962L493 842L229 765ZM65 0L222 680H360L203 0H65Z" />
<glyph unicode="&#xce;" glyph-name="Icircumflex" horiz-adv-x="268" d="M132 782L308 934H388L484 782H362L336 837L274 782H132ZM65 0L222 680H360L203 0H65Z" />
<glyph unicode="&#xcf;" glyph-name="Idieresis" horiz-adv-x="268" d="M158 800L189 935H300L268 800H158ZM357 800L388 935H499L466 800H357ZM65 0L222 680H360L203 0H65Z" />
<glyph unicode="&#xd0;" glyph-name="Eth" horiz-adv-x="613" d="M317 0H73L136 275H83L112 411H168L230 680H444Q668 680 668 473Q668 327 614 209Q553 77 447 28Q388 0 317 0ZM504 307T515 364T526 471T499 540T416 560H340L306 411H415L385 275H274L239 120H329Q380
120 420 157T482 250Z" />
<glyph unicode="&#xd1;" glyph-name="Ntilde" horiz-adv-x="651" d="M585 778T561 778T483 799T416 821Q389 821 344 792L329 782L325 875Q355 901 387 920T447 939T527 918T590 897Q611 897 659 926L675 935L677 841Q653 817 619 798ZM65 0L222 680H441L477 147H489L610
680H743L586 0H378L334 543H322L195 0H65Z" />
<glyph unicode="&#xd2;" glyph-name="Ograve" horiz-adv-x="615" d="M396 950L618 859L557 754L330 831L396 950ZM243 155T264 132T337 108T423 142Q470 189 498 284T527 470Q527 525 506 548T433 572T351 542Q301 493 272 394T243 225ZM669 347T628 229T509 49T322
-12Q101 -12 101 196Q101 327 141 443T258 625T448 692Q669 692 669 484Q669 347 628 229Z" />
<glyph unicode="&#xd3;" glyph-name="Oacute" horiz-adv-x="615" d="M243 155T264 132T337 108T423 142Q470 189 498 284T527 470Q527 525 506 548T433 572T351 542Q301 493 272 394T243 225ZM669 347T628 229T509 49T322 -12Q101 -12 101 196Q101 327 141 443T258
625T448 692Q669 692 669 484Q669 347 628 229ZM388 765L378 871L642 962L652 842L388 765Z" />
<glyph unicode="&#xd4;" glyph-name="Ocircumflex" horiz-adv-x="615" d="M243 155T264 132T337 108T423 142Q470 189 498 284T527 470Q527 525 506 548T433 572T351 542Q301 493 272 394T243 225ZM669 347T628 229T509 49T322 -12Q101 -12 101 196Q101 327 141
443T258 625T448 692Q669 692 669 484Q669 347 628 229ZM309 779L485 931H565L661 779H539L513 834L451 779H309Z" />
<glyph unicode="&#xd5;" glyph-name="Otilde" horiz-adv-x="615" d="M588 778T564 778T486 799T419 821Q392 821 348 792L332 782L328 875Q358 901 390 920T450 939T530 918T592 897Q614 897 662 926L678 935L680 841Q656 817 622 798ZM243 155T264 132T337 108T423
142Q470 189 498 284T527 470Q527 525 506 548T433 572T351 542Q301 493 272 394T243 225ZM669 347T628 229T509 49T322 -12Q101 -12 101 196Q101 327 141 443T258 625T448 692Q669 692 669 484Q669 347 628 229Z" />
<glyph unicode="&#xd6;" glyph-name="Odieresis" horiz-adv-x="615" d="M321 781L352 916H473L441 781H321ZM525 781L556 916H677L645 781H525ZM243 155T264 132T337 108T423 142Q470 189 498 284T527 470Q527 525 506 548T433 572T351 542Q301 493 272 394T243
225ZM669 347T628 229T509 49T322 -12Q101 -12 101 196Q101 327 141 443T258 625T448 692Q669 692 669 484Q669 347 628 229Z" />
<glyph unicode="&#xd7;" glyph-name="multiply" horiz-adv-x="560" d="M200 473L338 332L478 475L562 390L419 250L562 111L477 26L338 168L199 27L114 111L256 250L115 388L200 473Z" />
<glyph unicode="&#xd8;" glyph-name="Oslash" horiz-adv-x="615" d="M101 196Q101 327 141 443T258 625T448 692Q517 692 563 672L654 805L728 774L626 624Q669 571 669 484Q669 347 628 228Q545 -12 315 -12Q255 -12 206 7L119 -121L53 -81L144 53Q101 105 101
196ZM282 118Q302 108 345 108T423 142Q470 189 498 284T527 470V478L282 118ZM488 562Q468 572 425 572T351 542Q301 493 272 394T243 210V200L488 562Z" />
<glyph unicode="&#xd9;" glyph-name="Ugrave" horiz-adv-x="595" d="M389 950L611 859L550 754L323 831L389 950ZM249 231Q240 193 240 163T260 120T332 108T410 135T451 231L555 680H693L589 231Q560 103 495 46T321 -12Q103 -12 103 142Q103 194 116 253L215
680H353L249 231Z" />
<glyph unicode="&#xda;" glyph-name="Uacute" horiz-adv-x="595" d="M249 231Q240 193 240 163T260 120T332 108T410 135T451 231L555 680H693L589 231Q560 103 495 46T321 -12Q103 -12 103 142Q103 194 116 253L215 680H353L249 231ZM361 765L351 871L615 962L625
842L361 765Z" />
<glyph unicode="&#xdb;" glyph-name="Ucircumflex" horiz-adv-x="595" d="M249 231Q240 193 240 163T260 120T332 108T410 135T451 231L555 680H693L589 231Q560 103 495 46T321 -12Q103 -12 103 142Q103 194 116 253L215 680H353L249 231ZM295 779L471 931H551L647
779H525L499 834L437 779H295Z" />
<glyph unicode="&#xdc;" glyph-name="Udieresis" horiz-adv-x="595" d="M305 781L336 916H457L425 781H305ZM509 781L540 916H661L629 781H509ZM249 231Q240 193 240 163T260 120T332 108T410 135T451 231L555 680H693L589 231Q560 103 495 46T321 -12Q103 -12
103 142Q103 194 116 253L215 680H353L249 231Z" />
<glyph unicode="&#xdd;" glyph-name="Yacute" horiz-adv-x="504" d="M345 765L335 871L599 962L609 842L345 765ZM661 680L381 288L313 0H185L253 294L158 680H298L346 415L515 680H661Z" />
<glyph unicode="&#xde;" glyph-name="Thorn" horiz-adv-x="538" d="M343 236Q439 236 467 348Q471 367 471 387T462 425Q446 456 397 457L301 459L248 236H343ZM428 593Q528 593 574 522Q606 475 606 411Q606 381 599 348Q573 231 498 165T315 99Q314 99 312 99L216
100L193 0H63L226 690H357L332 593H428Z" />
<glyph unicode="&#xdf;" glyph-name="germandbls" horiz-adv-x="564" d="M203 629T260 670T419 712T571 675T622 567Q622 515 602 481T530 427T460 394T441 364T453 336T501 301T551 266Q583 239 583 180Q583 91 528 40T377 -12Q312 -12 240 9L216 16L245 114Q315
102 359 102T425 119T447 158T437 189T384 225T323 275T305 347T331 428T408 485T472 520T486 553Q486 598 410 598Q362 598 336 576T298 502L180 0H54L177 520Q203 629 260 670Z" />
<glyph unicode="&#xe0;" glyph-name="agrave" horiz-adv-x="528" d="M221 -12Q148 -12 114 37T80 170Q80 285 138 391Q167 444 218 478T334 512Q403 512 538 488L584 479L509 156L482 3L349 -2Q358 59 362 76Q321 21 266 -2Q243 -12 221 -12ZM338 398Q300 398
271 359Q216 285 216 170Q216 135 227 119T261 102T314 124T364 168L384 191L430 384Q364 398 338 398ZM352 772L573 682L517 583L288 662L352 772Z" />
<glyph unicode="&#xe1;" glyph-name="aacute" horiz-adv-x="528" d="M221 -12Q148 -12 114 37T80 170Q80 285 138 391Q167 444 218 478T334 512Q403 512 538 488L584 479L509 156L482 3L349 -2Q358 59 362 76Q321 21 266 -2Q243 -12 221 -12ZM338 398Q300 398
271 359Q216 285 216 170Q216 135 227 119T261 102T314 124T364 168L384 191L430 384Q364 398 338 398ZM336 576L326 683L590 774L600 654L336 576Z" />
<glyph unicode="&#xe2;" glyph-name="acircumflex" horiz-adv-x="528" d="M212 575L380 750H480L566 575H434L410 639L352 575H212ZM221 -12Q148 -12 114 37T80 170Q80 285 138 391Q167 444 218 478T334 512Q403 512 538 488L584 479L509 156L482 3L349 -2Q358
59 362 76Q321 21 266 -2Q243 -12 221 -12ZM338 398Q300 398 271 359Q216 285 216 170Q216 135 227 119T261 102T314 124T364 168L384 191L430 384Q364 398 338 398Z" />
<glyph unicode="&#xe3;" glyph-name="atilde" horiz-adv-x="528" d="M221 -12Q148 -12 114 37T80 170Q80 285 138 391Q167 444 218 478T334 512Q403 512 538 488L584 479L509 156L482 3L349 -2Q358 59 362 76Q321 21 266 -2Q243 -12 221 -12ZM338 398Q300 398
271 359Q216 285 216 170Q216 135 227 119T261 102T314 124T364 168L384 191L430 384Q364 398 338 398ZM578 626T547 608T492 590T423 612T364 634Q340 634 294 604L278 594L275 686Q283 693 295 704T338 733T395 751T466 730T521 708Q540 708 590 738L606 747L610
654L590 636Q578 626 547 608Z" />
<glyph unicode="&#xe4;" glyph-name="adieresis" horiz-adv-x="528" d="M242 601L273 736H394L362 601H242ZM446 601L477 736H598L566 601H446ZM221 -12Q148 -12 114 37T80 170Q80 285 138 391Q167 444 218 478T334 512Q403 512 538 488L584 479L509 156L482 3L349
-2Q358 59 362 76Q321 21 266 -2Q243 -12 221 -12ZM338 398Q300 398 271 359Q216 285 216 170Q216 135 227 119T261 102T314 124T364 168L384 191L430 384Q364 398 338 398Z" />
<glyph unicode="&#xe5;" glyph-name="aring" horiz-adv-x="528" d="M221 -12Q148 -12 114 37T80 170Q80 285 138 391Q167 444 218 478T334 512Q403 512 538 488L584 479L509 156L482 3L349 -2Q358 59 362 76Q321 21 266 -2Q243 -12 221 -12ZM338 398Q300 398 271
359Q216 285 216 170Q216 135 227 119T261 102T314 124T364 168L384 191L430 384Q364 398 338 398ZM378 733Q412 763 459 763T525 732Q536 714 536 693Q536 618 485 576Q450 547 403 547T338 578Q326 597 326 617Q326 688 378 733ZM403 656Q401 652 401 647T406
634T425 626Q452 626 461 655Q462 659 462 664T456 676T439 683Q411 683 403 656Z" />
<glyph unicode="&#xe6;" glyph-name="ae" horiz-adv-x="714" d="M452 167Q452 109 521 109Q569 109 666 116L693 118L670 16Q579 -12 480 -12T344 37Q318 23 260 6T168 -12Q105 -12 73 39Q52 73 52 102T57 153Q86 279 210 302Q266 312 302 312T349 312Q356 325
356 341Q356 386 324 386Q262 386 172 376L142 372L163 489Q290 511 366 511T473 470Q529 511 604 511T718 476Q760 437 760 364Q760 324 747 277L724 192L455 194Q452 180 452 167ZM184 143Q184 103 215 103Q262 103 316 116Q315 126 315 148T326 212Q301 212
247 208Q225 206 208 192Q184 174 184 143ZM628 294Q635 319 635 334T633 358Q625 396 580 396T513 371T478 296L628 294Z" />
<glyph unicode="&#xe7;" glyph-name="ccedilla" horiz-adv-x="410" d="M262 -33Q355 -33 355 -94Q355 -107 351 -124Q326 -229 222 -229Q182 -229 150 -221L138 -218L158 -137Q188 -138 204 -138Q240 -138 246 -114Q249 -102 242 -98T215 -94H193L212 -9Q152 1
118 45T83 162Q83 315 150 413T344 512Q404 512 472 488L493 481L459 383Q382 396 338 396Q281 396 250 334T219 188T295 104L402 112L391 13Q328 -9 262 -12L256 -33H262Z" />
<glyph unicode="&#xe8;" glyph-name="egrave" horiz-adv-x="476" d="M215 132T235 117T287 102Q356 102 428 112L454 115L439 16Q346 -12 255 -12T123 29T81 149T97 290T144 402T230 481T355 511Q530 511 530 362Q530 267 466 231T253 195H218Q215 183 215 158ZM274
294Q343 294 370 309T398 360Q398 403 348 403Q259 403 233 294H274ZM261 772L482 682L426 583L197 662L261 772Z" />
<glyph unicode="&#xe9;" glyph-name="eacute" horiz-adv-x="476" d="M215 132T235 117T287 102Q356 102 428 112L454 115L439 16Q346 -12 255 -12T123 29T81 149T97 290T144 402T230 481T355 511Q530 511 530 362Q530 267 466 231T253 195H218Q215 183 215 158ZM274
294Q343 294 370 309T398 360Q398 403 348 403Q259 403 233 294H274ZM282 576L272 683L536 774L546 654L282 576Z" />
<glyph unicode="&#xea;" glyph-name="ecircumflex" horiz-adv-x="476" d="M185 575L353 750H453L539 575H407L383 639L325 575H185ZM215 132T235 117T287 102Q356 102 428 112L454 115L439 16Q346 -12 255 -12T123 29T81 149T97 290T144 402T230 481T355 511Q530
511 530 362Q530 267 466 231T253 195H218Q215 183 215 158ZM274 294Q343 294 370 309T398 360Q398 403 348 403Q259 403 233 294H274Z" />
<glyph unicode="&#xeb;" glyph-name="edieresis" horiz-adv-x="476" d="M211 601L242 736H363L331 601H211ZM415 601L446 736H567L535 601H415ZM215 132T235 117T287 102Q356 102 428 112L454 115L439 16Q346 -12 255 -12T123 29T81 149T97 290T144 402T230 481T355
511Q530 511 530 362Q530 267 466 231T253 195H218Q215 183 215 158ZM274 294Q343 294 370 309T398 360Q398 403 348 403Q259 403 233 294H274Z" />
<glyph unicode="&#xec;" glyph-name="igrave" horiz-adv-x="243" d="M55 0L170 500H304L189 0H55ZM135 772L356 682L300 583L71 662L135 772Z" />
<glyph unicode="&#xed;" glyph-name="iacute" horiz-adv-x="243" d="M55 0L170 500H304L189 0H55ZM182 576L172 683L436 774L446 654L182 576Z" />
<glyph unicode="&#xee;" glyph-name="icircumflex" horiz-adv-x="243" d="M69 575L237 750H337L423 575H291L267 639L209 575H69ZM55 0L170 500H304L189 0H55Z" />
<glyph unicode="&#xef;" glyph-name="idieresis" horiz-adv-x="243" d="M89 601L120 736H241L209 601H89ZM293 601L324 736H445L413 601H293ZM55 0L170 500H304L189 0H55Z" />
<glyph unicode="&#xf0;" glyph-name="eth" horiz-adv-x="527" d="M588 453Q588 407 575 353Q529 164 456 78T249 -9Q145 -9 100 59Q72 103 72 157Q72 187 81 221Q107 318 174 378T339 438Q397 438 439 422L453 416Q455 430 455 442Q455 511 381 544L274 470L228
542L273 573L209 582L253 698Q351 693 417 672L515 739L558 667L504 629Q588 567 588 453ZM209 177Q209 118 279 118Q382 118 427 296Q383 318 320 318Q284 318 257 292T218 222Q209 197 209 177Z" />
<glyph unicode="&#xf1;" glyph-name="ntilde" horiz-adv-x="513" d="M266 336L189 0H55L170 500H298L292 451L309 466Q326 482 358 497T419 512Q541 512 541 371Q541 335 520 245L464 0H330L384 235Q402 310 402 339T395 382T358 396T266 336ZM550 626T519 608T464
590T395 612T336 634Q312 634 266 604L250 594L247 686Q255 693 267 704T310 733T367 751T438 730T493 708Q512 708 562 738L578 747L582 654L562 636Q550 626 519 608Z" />
<glyph unicode="&#xf2;" glyph-name="ograve" horiz-adv-x="496" d="M333 511Q530 511 530 322Q530 241 503 167T417 41T277 -12Q80 -12 80 177Q80 257 109 332T197 459T333 511ZM277 102Q331 102 364 170T397 324Q397 397 333 397Q279 397 246 329T213 175Q213
102 277 102ZM291 772L512 682L456 583L227 662L291 772Z" />
<glyph unicode="&#xf3;" glyph-name="oacute" horiz-adv-x="496" d="M333 511Q530 511 530 322Q530 241 503 167T417 41T277 -12Q80 -12 80 177Q80 257 109 332T197 459T333 511ZM277 102Q331 102 364 170T397 324Q397 397 333 397Q279 397 246 329T213 175Q213
102 277 102ZM283 576L273 683L537 774L547 654L283 576Z" />
<glyph unicode="&#xf4;" glyph-name="ocircumflex" horiz-adv-x="496" d="M200 575L368 750H468L554 575H422L398 639L340 575H200ZM333 511Q530 511 530 322Q530 241 503 167T417 41T277 -12Q80 -12 80 177Q80 257 109 332T197 459T333 511ZM277 102Q331 102
364 170T397 324Q397 397 333 397Q279 397 246 329T213 175Q213 102 277 102Z" />
<glyph unicode="&#xf5;" glyph-name="otilde" horiz-adv-x="496" d="M333 511Q530 511 530 322Q530 241 503 167T417 41T277 -12Q80 -12 80 177Q80 257 109 332T197 459T333 511ZM277 102Q331 102 364 170T397 324Q397 397 333 397Q279 397 246 329T213 175Q213
102 277 102ZM525 626T494 608T439 590T370 612T312 634Q287 634 240 604L225 594L222 686Q230 693 242 704T285 733T342 751T413 730T468 708Q487 708 537 738L553 747L557 654L537 636Q525 626 494 608Z" />
<glyph unicode="&#xf6;" glyph-name="odieresis" horiz-adv-x="496" d="M333 511Q530 511 530 322Q530 241 503 167T417 41T277 -12Q80 -12 80 177Q80 257 109 332T197 459T333 511ZM277 102Q331 102 364 170T397 324Q397 397 333 397Q279 397 246 329T213 175Q213
102 277 102ZM228 601L259 736H370L338 601H228ZM422 601L453 736H564L532 601H422Z" />
<glyph unicode="&#xf7;" glyph-name="divide" horiz-adv-x="560" d="M271 352V484H403V352H271ZM108 191V311H568V191H108ZM271 17V149H403V17H271Z" />
<glyph unicode="&#xf8;" glyph-name="oslash" horiz-adv-x="496" d="M334 513Q382 513 419 501L483 606L554 575L483 464Q531 418 531 331T504 169T418 43T278 -10Q231 -10 192 1L126 -107L56 -76L129 38Q81 84 81 171T110 334T198 461T334 513ZM334 399Q280 399
247 331T214 177V169L276 266L355 396Q346 399 334 399ZM278 104Q332 104 365 172T398 326V331L336 235L257 106Q269 104 278 104Z" />
<glyph unicode="&#xf9;" glyph-name="ugrave" horiz-adv-x="513" d="M295 772L516 682L460 583L231 662L295 772ZM209 -12Q87 -12 87 129Q87 168 108 255L164 500H298L244 265Q226 190 226 161T234 118T262 104Q296 104 346 149L362 164L439 500H573L458 0H330L336
49Q313 26 276 7T209 -12Z" />
<glyph unicode="&#xfa;" glyph-name="uacute" horiz-adv-x="513" d="M209 -12Q87 -12 87 129Q87 168 108 255L164 500H298L244 265Q226 190 226 161T234 118T262 104Q296 104 346 149L362 164L439 500H573L458 0H330L336 49Q313 26 276 7T209 -12ZM287 576L277
683L541 774L551 654L287 576Z" />
<glyph unicode="&#xfb;" glyph-name="ucircumflex" horiz-adv-x="513" d="M197 575L365 750H465L551 575H419L395 639L337 575H197ZM209 -12Q87 -12 87 129Q87 168 108 255L164 500H298L244 265Q226 190 226 161T234 118T262 104Q296 104 346 149L362 164L439
500H573L458 0H330L336 49Q313 26 276 7T209 -12Z" />
<glyph unicode="&#xfc;" glyph-name="udieresis" horiz-adv-x="513" d="M216 601L247 736H368L336 601H216ZM420 601L451 736H572L540 601H420ZM209 -12Q87 -12 87 129Q87 168 108 255L164 500H298L244 265Q226 190 226 161T234 118T262 104Q296 104 346 149L362
164L439 500H573L458 0H330L336 49Q313 26 276 7T209 -12Z" />
<glyph unicode="&#xfd;" glyph-name="yacute" horiz-adv-x="464" d="M126 500H257L243 111H258L432 500H567L235 -210H102L205 0H122L126 500ZM273 576L263 683L527 774L537 654L273 576Z" />
<glyph unicode="&#xfe;" glyph-name="thorn" horiz-adv-x="495" d="M291 469Q352 511 400 511T483 487T527 427T537 370T536 325T523 255Q482 105 420 47T248 -12Q177 -12 177 -7L130 -208H4L218 698H344L291 469ZM394 255Q403 288 403 308T401 345T386 375T354
388Q323 388 276 359L262 350L206 113L273 107Q356 107 394 255Z" />
<glyph unicode="&#xff;" glyph-name="ydieresis" horiz-adv-x="464" d="M198 601L229 736H350L318 601H198ZM402 601L433 736H554L522 601H402ZM126 500H257L243 111H258L432 500H567L235 -210H102L205 0H122L126 500Z" />
<glyph unicode="&#x2013;" glyph-name="endash" horiz-adv-x="526" d="M75 323H575V209H75V323Z" />
<glyph unicode="&#x2014;" glyph-name="emdash" horiz-adv-x="1026" d="M75 323H1075V209H75V323Z" />
<glyph unicode="&#x2018;" glyph-name="quoteleft" horiz-adv-x="174" d="M233 679H333L228 424H96L233 679Z" />
<glyph unicode="&#x2019;" glyph-name="quoteright" horiz-adv-x="174" d="M196 425H96L201 680H333L196 425Z" />
<glyph unicode="&#x201a;" glyph-name="quotesinglbase" horiz-adv-x="150" d="M34 -165H-66L39 90H171L34 -165Z" />
<glyph unicode="&#x201c;" glyph-name="quotedblleft" horiz-adv-x="363" d="M231 680H331L226 425H94L231 680ZM421 680H521L416 425H284L421 680Z" />
<glyph unicode="&#x201d;" glyph-name="quotedblright" horiz-adv-x="364" d="M196 425H96L201 680H333L196 425ZM386 425H286L391 680H523L386 425Z" />
<glyph unicode="&#x201e;" glyph-name="quotedblbase" horiz-adv-x="347" d="M266 85H366L261 -170H129L266 85ZM46 85H146L41 -170H-91L46 85Z" />
<glyph unicode="&#x2022;" glyph-name="bullet" horiz-adv-x="458" d="M160 100V380H410V100H160Z" />
<glyph unicode="&#x2039;" glyph-name="guilsinglleft" horiz-adv-x="232" d="M326 436L289 305L176 240L256 163L223 43L53 212L76 273L326 436Z" />
<glyph unicode="&#x203a;" glyph-name="guilsinglright" horiz-adv-x="234" d="M19 43L56 174L169 239L89 316L122 436L292 267L269 206L19 43Z" />
</font>
</defs>
</svg>
